<?xml version="1.0" standalone="no"?>
<!DOCTYPE svg PUBLIC "-//W3C//DTD SVG 1.1//EN" "http://www.w3.org/Graphics/SVG/1.1/DTD/svg11.dtd">
<svg xmlns="http://www.w3.org/2000/svg">
<defs >
<font id="Lato" horiz-adv-x="1003" ><font-face
    font-family="Lato Hairline"
    units-per-em="2000"
    panose-1="2 15 2 2 2 2 4 3 2 3"
    ascent="1974"
    descent="-426"
    alphabetic="0" />
<glyph unicode=" " glyph-name="space" horiz-adv-x="386" />
<glyph unicode="!" glyph-name="exclam" horiz-adv-x="610" d="M322 1400V828Q322 784 322 746T321 667T319 581T316 476H300Q298 535 297 581T296 667T295 745T294 828V1400H322ZM240 48Q240 75 258 94T304 114Q331 114 350 95T370 48Q370 21 351 3T304 -16Q277
-16 259 2T240 48Z" />
<glyph unicode="&quot;" glyph-name="quotedbl" horiz-adv-x="682" d="M224 1400V1106L222 954Q222 946 214 946Q206 946 206 954L204 1106V1400H224ZM478 1400V1106L476 954Q476 946 468 946Q460 946 460 954L458 1106V1400H478Z" />
<glyph unicode="#" glyph-name="numbersign" horiz-adv-x="1160" d="M723 460L620 0H614Q601 0 601 8Q601 13 605 29L701 460H359L260 16Q257 0 244 0H234L337 460H122Q108 460 108 472V478H339L437 922H164V928Q164 940 178 940H439L538 1384Q541 1400 556 1400H564L461
940H803L906 1400H916Q926 1400 926 1391Q926 1387 921 1367L825 940H1060V934Q1060 922 1046 922H823L725 478H990Q1004 478 1004 466V460H723ZM361 478H703L801 922H459L361 478Z" />
<glyph unicode="$" glyph-name="dollar" horiz-adv-x="1160" d="M579 -16Q509 -16 454 -4T352 32T267 89T192 166L196 170Q199 173 201 174T208 176Q214 176 225 164T256 132T304 91T371 49T462 17T579 4L605 730Q539 751 477 776T367 839T289 934T260 1074Q260
1140 284 1201T356 1308T471 1383T629 1414L636 1602Q636 1618 648 1618H658L650 1414Q748 1412 823 1379T966 1276L962 1270Q959 1264 952 1264Q942 1264 924 1283T872 1327T784 1371T650 1394L627 747Q698 724 767 699T890 635T978 540T1012 394Q1012 310 985
237T904 109T775 21T600 -15L592 -258Q592 -274 580 -274H570L579 -16ZM990 390Q990 472 959 526T876 617T760 678T626 724L601 4Q693 7 765 39T888 123T964 244T990 390ZM282 1074Q282 999 309 947T381 859T484 799T606 754L629 1393Q545 1391 481 1365T372 1294T305
1193T282 1074Z" />
<glyph unicode="%" glyph-name="percent" horiz-adv-x="1500" d="M660 1064Q660 974 638 908T577 799T488 735T380 714Q322 714 271 735T182 799T122 908T100 1064Q100 1155 122 1221T182 1330T271 1395T380 1416Q437 1416 488 1395T577 1331T637 1221T660 1064ZM638
1064Q638 1151 618 1214T562 1318T479 1378T380 1398Q327 1398 281 1379T199 1318T143 1214T122 1064Q122 977 142 914T198 811T280 751T380 732Q432 732 479 751T561 810T617 914T638 1064ZM1224 1392Q1229 1400 1240 1400H1254L266 8Q261 0 250 0H236L1224 1392ZM1400
334Q1400 244 1378 178T1317 69T1228 5T1120 -16Q1062 -16 1011 5T922 69T862 178T840 334Q840 425 862 491T922 600T1011 665T1120 686Q1177 686 1228 665T1317 601T1377 491T1400 334ZM1378 334Q1378 421 1358 484T1302 588T1219 648T1120 668Q1067 668 1021
649T939 588T883 484T862 334Q862 247 882 184T938 81T1020 21T1120 2Q1172 2 1219 21T1301 80T1357 184T1378 334Z" />
<glyph unicode="&amp;" glyph-name="ampersand" horiz-adv-x="1362" d="M658 1416Q716 1416 770 1395T867 1337T936 1253T962 1152H956Q951 1152 947 1155T940 1168Q938 1195 920 1234T868 1309T781 1370T658 1396Q590 1396 533 1375T435 1317T371 1227T348 1110Q348
1017 397 932T546 752L1022 296Q1073 372 1102 453T1140 606Q1142 614 1144 618T1154 622H1162Q1159 547 1128 458T1038 281L1332 0H1316Q1307 0 1301 1T1286 10L1025 263Q984 206 931 156T814 67T674 6T514 -16Q443 -16 374 7T249 76T160 189T126 344Q126 419
154 487T231 611T347 709T490 777Q449 820 418 859T366 938T335 1020T324 1110Q324 1177 348 1233T417 1329T523 1393T658 1416ZM150 344Q150 257 184 193T272 87T390 25T514 4Q598 4 671 25T806 84T920 171T1010 277L505 762Q429 738 364 696T252 600T177 480T150
344Z" />
<glyph unicode="&apos;" glyph-name="quotesingle" horiz-adv-x="428" d="M224 1400V1106L222 954Q222 946 214 946Q206 946 206 954L204 1106V1400H224Z" />
<glyph unicode="(" glyph-name="parenleft" horiz-adv-x="600" d="M222 632Q222 399 288 190T486 -218Q490 -223 490 -227Q490 -231 486 -234L476 -240Q398 -121 345 -12T260 202T214 413T200 632Q200 744 214 850T260 1061T345 1276T476 1504L486 1498Q490 1496
490 1491Q490 1487 486 1482Q354 1284 288 1074T222 632Z" />
<glyph unicode=")" glyph-name="parenright" horiz-adv-x="600" d="M376 632Q376 864 310 1074T112 1482Q108 1487 108 1491Q108 1496 112 1498L122 1504Q200 1385 253 1276T338 1062T384 850T398 632Q398 519 384 414T338 203T253 -12T122 -240L112 -234Q108
-231 108 -227Q108 -223 112 -218Q244 -20 310 189T376 632Z" />
<glyph unicode="*" glyph-name="asterisk" horiz-adv-x="800" d="M388 926V1154Q388 1165 389 1172T395 1197Q382 1184 377 1181T360 1170L158 1052L148 1070L350 1188Q360 1193 367 1195T391 1203Q374 1210 367 1212T350 1220L146 1338L156 1356L360 1238Q365
1235 368 1233T375 1227T382 1220T395 1208Q391 1226 390 1234T388 1254V1482H408V1254Q408 1242 408 1234T402 1208Q416 1222 421 1227T438 1238L640 1356L650 1338L448 1220Q438 1214 431 1211T408 1203Q425 1198 431 1196T448 1188L652 1070L642 1052L438 1170Q433
1173 430 1175T423 1179T414 1186T402 1198Q405 1180 406 1173T408 1154V926H388Z" />
<glyph unicode="+" glyph-name="plus" horiz-adv-x="1160" d="M588 1150V680H1040V660H588V188H568V660H118V680H568V1150H588Z" />
<glyph unicode="," glyph-name="comma" horiz-adv-x="370" d="M124 52Q124 76 140 95T184 114Q211 114 228 94T246 36Q246 -41 213 -112T128 -238L125 -235Q122 -232 122 -229Q122 -226 127 -219Q137 -206 154 -184T187 -131T214 -65T226 11Q209 -8 180 -8Q156
-8 140 8T124 52Z" />
<glyph unicode="-" glyph-name="hyphen" horiz-adv-x="640" d="M100 598H540V578H100V598Z" />
<glyph unicode="." glyph-name="period" horiz-adv-x="370" d="M120 48Q120 75 138 94T184 114Q211 114 230 95T250 48Q250 21 231 3T184 -16Q157 -16 139 2T120 48Z" />
<glyph unicode="/" glyph-name="slash" horiz-adv-x="684" d="M32 -66Q29 -74 23 -76T10 -78H2L642 1428Q648 1440 662 1440H672L32 -66Z" />
<glyph unicode="0" glyph-name="zero" horiz-adv-x="1160" d="M1076 700Q1076 516 1037 382T930 159T772 29T580 -14Q479 -14 389 28T231 159T124 381T84 700Q84 884 123 1018T230 1241T388 1373T580 1416Q681 1416 771 1373T929 1242T1036 1019T1076 700ZM1050
700Q1050 880 1013 1011T911 1227T762 1354T580 1396Q484 1396 398 1355T248 1228T146 1011T108 700Q108 520 145 389T247 173T398 47T580 6Q676 6 761 47T911 173T1012 389T1050 700Z" />
<glyph unicode="1" glyph-name="one" horiz-adv-x="1160" d="M328 20H668V1316Q668 1330 669 1344T672 1373L310 1046Q305 1041 300 1041Q294 1041 290 1046L284 1054L678 1408H692V20H1024V0H328V20Z" />
<glyph unicode="2" glyph-name="two" horiz-adv-x="1160" d="M602 1416Q674 1416 743 1395T867 1330T954 1216T988 1050Q988 970 963 901T894 769T795 646T676 522L182 18Q203 20 230 21T292 22H1016Q1026 22 1026 12V0H150V8Q150 14 153 18T158 24L662 536Q724
599 779 659T875 781T940 909T964 1050Q964 1141 933 1206T851 1314T735 1376T602 1396Q524 1396 459 1372T343 1305T261 1201T216 1068Q213 1052 200 1052H190Q201 1136 235 1203T324 1318T448 1390T602 1416Z" />
<glyph unicode="3" glyph-name="three" horiz-adv-x="1160" d="M608 1416Q680 1416 748 1396T869 1334T954 1226T986 1066Q986 995 959 936T888 832T785 760T666 722Q753 715 820 686T933 611T1002 504T1026 370Q1026 293 994 223T903 100T765 16T590 -16Q506
-16 443 1T333 45T255 109T202 185T169 263T148 336L152 338Q156 340 160 340Q168 340 171 334T178 315Q181 301 189 273T216 210T262 139T336 72T443 23T590 4Q693 4 770 38T898 126T976 244T1002 370Q1002 442 977 504T898 612T760 684T558 712V728Q650 731 725
756T852 826T933 931T962 1066Q962 1153 933 1215T854 1318T740 1377T608 1396Q530 1396 464 1372T348 1305T265 1201T220 1068Q217 1052 206 1052H196Q207 1136 241 1203T330 1318T454 1390T608 1416Z" />
<glyph unicode="4" glyph-name="four" horiz-adv-x="1160" d="M820 452H1116V444Q1116 432 1100 432H820V0H796V432H102Q91 432 89 434T84 442L82 450L806 1402H820V452ZM796 1322Q796 1330 796 1339T798 1357L110 452H796V1322Z" />
<glyph unicode="5" glyph-name="five" horiz-adv-x="1160" d="M956 1390Q956 1385 952 1382T942 1378H376L275 823Q351 843 419 852T547 861Q656 861 738 831T876 746T960 615T988 446Q988 336 950 250T848 105T700 15T522 -16Q468 -16 418 -7T325 16T245 49T182
88L188 96Q192 102 200 102Q207 102 231 88T295 55T392 23T522 8Q611 8 691 36T831 120T926 258T962 448Q962 533 938 605T862 729T733 811T547 841Q487 841 418 832T268 802L250 810L356 1400H956V1390Z" />
<glyph unicode="6" glyph-name="six" horiz-adv-x="1160" d="M608 818Q703 818 780 787T911 701T994 570T1024 404Q1024 310 991 233T899 101T757 15T578 -16Q486 -16 410 13T278 100T191 240T160 430Q160 504 202 607T344 846L750 1394Q753 1399 756 1399T762
1400H782L364 836Q310 763 274 704T215 590Q241 643 282 685T375 756T486 802T608 818ZM184 414Q184 325 212 250T291 121T416 35T578 4Q677 4 755 34T888 117T971 244T1000 404Q1000 495 972 568T892 692T768 770T610 798Q508 798 429 763T295 672T213 548T184
414Z" />
<glyph unicode="7" glyph-name="seven" horiz-adv-x="1160" d="M1060 1400V1388Q1060 1382 1056 1374L360 12Q354 0 338 0H326L1024 1364Q1027 1371 1032 1378H158Q146 1378 146 1390V1400H1060Z" />
<glyph unicode="8" glyph-name="eight" horiz-adv-x="1160" d="M580 -16Q483 -16 403 10T264 84T173 201T140 358Q140 446 168 511T245 622T355 694T486 731Q416 744 361 775T269 850T212 949T192 1068Q192 1140 218 1203T294 1314T416 1388T580 1416Q671 1416
743 1389T865 1314T941 1204T968 1068Q968 1005 948 950T891 850T799 775T674 731Q742 720 804 694T915 623T991 512T1020 358Q1020 271 988 202T897 84T758 10T580 -16ZM580 4Q671 4 747 29T878 100T965 211T996 358Q996 431 977 486T924 581T849 648T760 691T667
713T580 720Q539 720 493 714T400 691T312 649T236 582T184 486T164 358Q164 277 195 212T281 100T413 29T580 4ZM580 740Q671 740 739 767T853 840T921 945T944 1068Q944 1138 919 1198T847 1302T733 1371T580 1396Q495 1396 428 1371T313 1303T241 1199T216 1068Q216
1004 238 945T306 841T420 768T580 740Z" />
<glyph unicode="9" glyph-name="nine" horiz-adv-x="1160" d="M594 614Q502 614 428 644T301 727T220 853T192 1012Q192 1100 225 1174T315 1302T451 1386T622 1416Q708 1416 781 1386T909 1299T993 1164T1024 988Q1024 939 1012 894T978 802T922 702T846 586L456
6Q453 1 450 1T444 0H424L828 596Q878 670 916 727T977 844Q952 791 912 749T821 676T713 630T594 614ZM1000 1002Q1000 1087 972 1159T893 1284T773 1366T622 1396Q533 1396 459 1368T330 1290T246 1168T216 1012Q216 925 243 855T320 736T439 661T592 634Q689
634 765 668T893 755T973 873T1000 1002Z" />
<glyph unicode=":" glyph-name="colon" horiz-adv-x="450" d="M160 48Q160 75 178 94T224 114Q251 114 270 95T290 48Q290 21 271 3T224 -16Q197 -16 179 2T160 48ZM160 886Q160 913 178 932T224 952Q251 952 270 933T290 886Q290 859 271 841T224 822Q197 822
179 840T160 886Z" />
<glyph unicode=";" glyph-name="semicolon" horiz-adv-x="450" d="M164 52Q164 76 180 95T224 114Q251 114 268 94T286 36Q286 -41 253 -112T168 -238L165 -235Q162 -232 162 -229Q162 -226 167 -219Q177 -206 194 -184T227 -131T254 -65T266 11Q249 -8 220 -8Q196
-8 180 8T164 52ZM160 886Q160 913 178 932T224 952Q251 952 270 933T290 886Q290 859 271 841T224 822Q197 822 179 840T160 886Z" />
<glyph unicode="&lt;" glyph-name="less" horiz-adv-x="1160" d="M170 676L900 1048V1037Q900 1025 881 1016L238 690Q226 684 215 679T191 670Q203 666 214 661T238 650L881 324Q900 314 900 303V292L170 664V676Z" />
<glyph unicode="=" glyph-name="equal" horiz-adv-x="1160" d="M180 540H980V520H180V540ZM180 834H980V814H180V834Z" />
<glyph unicode="&gt;" glyph-name="greater" horiz-adv-x="1160" d="M260 292V303Q260 314 279 324L922 650Q933 655 944 660T968 670Q956 673 945 678T922 690L279 1016Q260 1025 260 1037V1048L990 676V664L260 292Z" />
<glyph unicode="?" glyph-name="question" horiz-adv-x="694" d="M32 1280Q56 1305 86 1329T154 1373T236 1404T334 1416Q395 1416 453 1397T555 1341T627 1252T654 1132Q654 1056 630 1001T568 905T488 831T408 771T345 713T318 648L312 476H296V650Q296 689
320 719T382 779T463 839T543 911T605 1005T630 1132Q630 1194 605 1243T539 1326T445 1378T334 1396Q263 1396 211 1376T124 1332T69 1288T45 1268Q41 1268 37 1273L32 1280ZM240 48Q240 75 258 94T304 114Q331 114 350 95T370 48Q370 21 351 3T304 -16Q277 -16
259 2T240 48Z" />
<glyph unicode="@" glyph-name="at" horiz-adv-x="1642" d="M1168 190Q1078 190 1039 237T999 363Q999 376 1000 389T1003 417Q952 302 877 249T712 196Q659 196 621 214T558 264T520 338T508 430Q508 486 522 543T565 653T634 752T727 831T842 884T978 904Q1019
904 1061 897T1134 874L1046 538Q1032 486 1026 445T1020 371Q1020 321 1032 290T1066 241T1114 217T1170 210Q1234 210 1293 241T1397 332T1469 477T1496 670Q1496 827 1444 943T1303 1135T1099 1249T856 1286Q763 1286 675 1262T508 1191T364 1077T251 927T177
744T150 532Q150 350 209 211T368 -23T603 -166T886 -214Q1031 -214 1158 -179T1399 -68Q1403 -65 1408 -65Q1415 -65 1418 -71L1424 -82Q1309 -159 1176 -197T886 -236Q729 -236 591 -186T350 -39T188 202T128 532Q128 702 186 844T343 1089T575 1249T856 1306Q942
1306 1025 1289T1181 1237T1317 1150T1423 1026T1493 866T1518 670Q1518 560 1490 472T1414 321T1303 224T1168 190ZM716 216Q757 216 801 230T886 280T962 380T1024 542L1108 866Q1077 874 1049 879T978 884Q909 884 849 865T740 814T652 737T587 642T546 537T532
430Q532 386 543 347T577 279T634 233T716 216Z" />
<glyph unicode="A" glyph-name="A" horiz-adv-x="1228" d="M1208 0H1190Q1181 0 1178 10L983 478H245L50 10Q47 0 36 0H20L604 1400H624L1208 0ZM253 498H975L630 1326Q625 1337 622 1346T614 1367Q610 1356 607 1347T598 1326L253 498Z" />
<glyph unicode="B" glyph-name="B" horiz-adv-x="1272" d="M240 0V1400H604Q827 1400 936 1311T1046 1052Q1046 990 1022 932T955 828T853 752T725 714Q814 707 885 681T1007 610T1085 504T1112 368Q1112 279 1082 210T993 95T850 24T658 0H240ZM264 700V20H658Q759
20 839 42T974 107T1059 216T1088 368Q1088 444 1058 505T972 610T837 677T660 700H264ZM264 720H614Q726 720 804 751T931 830T1002 937T1024 1052Q1024 1208 921 1294T604 1380H264V720Z" />
<glyph unicode="C" glyph-name="C" horiz-adv-x="1438" d="M1284 189Q1288 189 1291 186L1300 178Q1256 135 1206 100T1095 39T963 -1T804 -16Q663 -16 544 33T338 176T203 401T154 700Q154 860 202 992T339 1218T551 1364T824 1416Q900 1416 961 1406T1075 1376T1175
1324T1272 1252L1269 1247Q1265 1242 1260 1242Q1252 1242 1239 1253T1203 1282T1147 1319T1068 1356T962 1384T824 1396Q682 1396 564 1348T360 1209T226 989T178 700Q178 537 225 408T357 189T555 52T804 4Q889 4 956 16T1078 51T1181 107T1276 184Q1281 189
1284 189Z" />
<glyph unicode="D" glyph-name="D" horiz-adv-x="1532" d="M1388 700Q1388 534 1341 404T1208 184T1003 47T740 0H240V1400H740Q884 1400 1003 1353T1207 1216T1340 996T1388 700ZM1362 700Q1362 863 1317 989T1189 1203T993 1335T740 1380H264V20H740Q878 20
992 65T1189 197T1316 410T1362 700Z" />
<glyph unicode="E" glyph-name="E" horiz-adv-x="1200" d="M1058 1400V1378H264V722H938V700H264V22H1060L1058 0H240V1400H1058Z" />
<glyph unicode="F" glyph-name="F" horiz-adv-x="1154" d="M1058 1400V1378H264V702H958V680H264V0H240V1400H1058Z" />
<glyph unicode="G" glyph-name="G" horiz-adv-x="1522" d="M822 4Q908 4 977 13T1107 41T1220 86T1328 147V582H1014Q1002 582 1002 592V602H1350V138Q1298 103 1243 75T1124 26T986 -5T822 -16Q671 -16 548 33T338 176T202 401T154 700Q154 865 202 997T340 1223T557
1366T844 1416Q922 1416 987 1407T1107 1377T1212 1327T1308 1255L1305 1250Q1301 1245 1296 1245Q1288 1245 1262 1268T1184 1320T1048 1372T844 1396Q692 1396 569 1349T359 1211T225 992T178 700Q178 537 224 408T356 189T559 52T822 4Z" />
<glyph unicode="H" glyph-name="H" horiz-adv-x="1512" d="M1272 0H1248V700H264V0H240V1400H264V722H1248V1400H1272V0Z" />
<glyph unicode="I" glyph-name="I" horiz-adv-x="584" d="M304 0H280V1400H304V0Z" />
<glyph unicode="J" glyph-name="J" horiz-adv-x="924" d="M684 452Q684 334 655 247T574 101T448 13T286 -16Q204 -16 114 14L116 20Q120 30 128 30Q138 30 151 26T182 17T226 8T286 4Q371 4 440 32T558 116T633 256T660 452V1400H684V452Z" />
<glyph unicode="K" glyph-name="K" horiz-adv-x="1284" d="M304 724H398Q417 724 430 725T453 729T474 740T496 758L1148 1384Q1159 1393 1166 1396T1184 1400H1196L516 748Q500 733 488 726T456 714Q474 711 487 703T514 682L1236 0H1226Q1211 0 1205 3T1190
14L502 664Q487 678 476 686T454 698T430 703T398 704H304V0H280V1402H304V724Z" />
<glyph unicode="L" glyph-name="L" horiz-adv-x="1018" d="M264 22H978V0H240V1400H264V22Z" />
<glyph unicode="M" glyph-name="M" horiz-adv-x="1798" d="M898 321Q901 316 903 312T909 300Q912 307 914 311T920 321L1536 1392Q1541 1400 1550 1400H1558V0H1538V1338Q1538 1343 1538 1348T1539 1358L926 290Q919 280 912 280H906Q899 280 892 290L259 1357Q260
1352 260 1348T260 1338V0H240V1400H248Q257 1400 262 1392L898 321Z" />
<glyph unicode="N" glyph-name="N" horiz-adv-x="1512" d="M248 1400Q257 1400 262 1392L1253 43Q1252 48 1252 53T1252 64V1400H1272V0H1266Q1260 0 1255 7L259 1362Q260 1356 260 1350T260 1338V0H240V1400H248V1400Z" />
<glyph unicode="O" glyph-name="O" horiz-adv-x="1594" d="M1444 700Q1444 534 1397 402T1264 178T1059 36T796 -14Q653 -14 535 35T331 177T198 402T150 700Q150 865 197 997T330 1223T534 1366T796 1416Q940 1416 1059 1367T1263 1224T1396 999T1444 700ZM1418
700Q1418 863 1373 992T1245 1211T1049 1348T796 1396Q660 1396 546 1349T350 1211T221 992T174 700Q174 537 220 409T349 191T546 54T796 6Q934 6 1048 53T1245 190T1372 408T1418 700Z" />
<glyph unicode="P" glyph-name="P" horiz-adv-x="1158" d="M304 600V0H280V1400H596Q825 1400 947 1301T1070 1000Q1070 913 1036 840T938 713T788 630T596 600H304ZM304 620H596Q699 620 782 649T923 730T1014 851T1046 1000Q1046 1187 934 1283T596 1380H304V620Z" />
<glyph unicode="Q" glyph-name="Q" horiz-adv-x="1594" d="M1444 700Q1444 587 1422 490T1359 312T1258 170T1123 66L1494 -326H1472Q1464 -326 1460 -324T1452 -318L1102 55Q1035 21 959 4T796 -14Q653 -14 535 35T331 177T198 402T150 700Q150 865 197 997T330
1223T534 1366T796 1416Q940 1416 1059 1367T1263 1224T1396 999T1444 700ZM1418 700Q1418 863 1373 992T1245 1211T1049 1348T796 1396Q660 1396 546 1349T350 1211T221 992T174 700Q174 537 220 409T349 191T546 54T796 6Q934 6 1048 53T1245 190T1372 408T1418
700Z" />
<glyph unicode="R" glyph-name="R" horiz-adv-x="1240" d="M304 676V0H280V1400H604Q823 1400 940 1315T1058 1050Q1058 965 1025 897T932 780T789 705T604 676Q614 672 622 666T638 650L1184 0H1168Q1160 0 1155 1T1142 12L618 640Q609 651 601 658T582 669T557
674T522 676H304ZM304 696H586Q689 696 771 720T912 790T1002 901T1034 1050Q1034 1221 923 1300T604 1380H304V696Z" />
<glyph unicode="S" glyph-name="S" horiz-adv-x="1032" d="M882 1272Q877 1266 871 1266Q862 1266 844 1286T790 1331T698 1375T558 1396Q472 1396 406 1370T294 1299T226 1197T202 1076Q202 995 233 941T316 850T433 789T567 742T701 694T818 631T900 536T932
394Q932 308 903 234T819 104T684 16T502 -16Q431 -16 375 -4T273 32T187 89T112 166L116 170Q119 173 121 174T128 176Q134 176 145 164T177 132T225 90T293 49T384 17T502 4Q599 4 674 35T802 118T882 241T910 390Q910 456 890 504T834 586T753 645T653 689T545
725T437 762T338 807T256 869T201 956T180 1076Q180 1143 205 1204T278 1313T396 1388T558 1416Q660 1416 738 1383T886 1278L882 1272Z" />
<glyph unicode="T" glyph-name="T" horiz-adv-x="1160" d="M1120 1400V1378H594V0H570V1378H40V1400H1120Z" />
<glyph unicode="U" glyph-name="U" horiz-adv-x="1472" d="M736 4Q849 4 938 44T1090 155T1185 319T1218 520V1400H1242V520Q1242 409 1207 311T1106 140T947 25T736 -18Q619 -18 526 24T366 140T265 311T230 520V1400H254V522Q254 415 287 321T382 156T533 45T736 4Z" />
<glyph unicode="V" glyph-name="V" horiz-adv-x="1228" d="M20 1400H38Q47 1400 50 1390L598 74Q603 63 607 53T614 33Q617 42 621 52T630 74L1178 1390Q1181 1400 1192 1400H1208L624 0H604L20 1400Z" />
<glyph unicode="W" glyph-name="W" horiz-adv-x="1918" d="M20 1400H38Q47 1400 50 1390L459 83Q464 69 467 57T474 30Q477 44 480 56T489 83L944 1390Q947 1400 956 1400H962Q971 1400 974 1390L1429 83Q1439 56 1444 30Q1450 60 1459 83L1868 1390Q1871 1400
1882 1400H1898L1454 0H1434L968 1344Q962 1363 959 1375Q956 1363 950 1344L484 0H464L20 1400Z" />
<glyph unicode="X" glyph-name="X" horiz-adv-x="1124" d="M546 716L44 1400H66Q74 1400 77 1395T84 1386L563 729L572 744L1040 1386Q1043 1391 1047 1395T1058 1400H1080L579 719L1104 0H1082Q1074 0 1070 5T1064 14L562 706Q561 701 554 692L60 14Q56 9 52
5T42 0H20L546 716Z" />
<glyph unicode="Y" glyph-name="Y" horiz-adv-x="1148" d="M586 595V0H562V595L40 1400H60Q69 1400 74 1392L545 662Q553 649 560 638T574 614Q579 626 587 637T603 662L1074 1392Q1079 1400 1088 1400H1108L586 595Z" />
<glyph unicode="Z" glyph-name="Z" horiz-adv-x="1282" d="M1156 1400V1396Q1156 1387 1148 1376L174 22H1154L1152 0H140V4Q140 10 141 13T146 22L1122 1378H156V1400H1156Z" />
<glyph unicode="[" glyph-name="bracketleft" horiz-adv-x="600" d="M204 -242V1502H478V1496Q478 1484 464 1484H226V-224H464Q478 -224 478 -236V-242H204Z" />
<glyph unicode="\" glyph-name="backslash" horiz-adv-x="684" d="M2 1440H12Q26 1440 32 1428L672 -78H664Q658 -78 652 -76T642 -66L2 1440Z" />
<glyph unicode="]" glyph-name="bracketright" horiz-adv-x="600" d="M122 -236Q122 -224 136 -224H374V1484H136Q122 1484 122 1496V1502H396V-242H122V-236Z" />
<glyph unicode="^" glyph-name="asciicircum" horiz-adv-x="1160" d="M906 812H892Q879 812 872 826L592 1332Q587 1342 582 1351T574 1372Q567 1352 556 1332L276 826Q273 821 269 817T256 812H242L568 1400H580L906 812Z" />
<glyph unicode="_" glyph-name="underscore" horiz-adv-x="788" d="M788 -240V-262H0V-240H788Z" />
<glyph unicode="`" glyph-name="grave" horiz-adv-x="560" d="M154 1416Q171 1416 179 1412T196 1394L360 1158H346Q335 1158 330 1166L128 1416H154Z" />
<glyph unicode="a" glyph-name="a" horiz-adv-x="938" d="M784 0Q770 0 770 16L764 175Q722 131 680 96T591 36T490 -2T370 -16Q326 -16 282 -3T201 40T143 116T120 230Q120 296 158 348T276 438T477 496T764 522V648Q764 725 747 786T697 889T614 953T498 976Q446
976 404 965T329 938T272 903T229 868T200 841T184 830Q180 830 174 836L170 840Q242 916 319 956T498 996Q573 996 627 972T718 903T771 794T788 648V0H784ZM370 4Q439 4 495 20T598 63T685 125T764 200V502Q449 492 297 424T144 230Q144 171 163 129T214 59T286
18T370 4Z" />
<glyph unicode="b" glyph-name="b" horiz-adv-x="1070" d="M190 0V1440H214V778Q280 878 373 937T578 996Q768 996 869 874T970 496Q970 389 943 297T861 136T727 28T540 -12Q431 -12 350 31T213 164L210 14Q210 9 208 5T198 0H190ZM578 976Q469 976 376 915T214
746V195Q278 92 357 50T540 8Q643 8 719 45T845 149T921 304T946 496Q946 740 853 858T578 976Z" />
<glyph unicode="c" glyph-name="c" horiz-adv-x="890" d="M800 888Q796 884 792 884Q786 884 770 898T722 930T643 961T528 976Q433 976 358 942T231 845T152 692T124 490Q124 374 151 285T230 134T352 40T512 8Q590 8 644 26T733 66T786 106T810 124Q814 124
818 120L822 116Q807 94 778 72T709 31T619 0T512 -12Q417 -12 341 22T212 120T129 278T100 490Q100 604 129 697T213 857T347 959T528 996Q617 996 686 968T806 894L800 888Z" />
<glyph unicode="d" glyph-name="d" horiz-adv-x="1070" d="M874 0Q860 0 860 16L856 205Q790 105 697 47T492 -12Q301 -12 201 110T100 488Q100 594 127 687T208 848T342 956T530 996Q638 996 719 953T856 820V1440H880V0H874ZM492 8Q601 8 694 69T856 237V788Q791
891 712 933T530 976Q427 976 351 939T225 835T149 680T124 488Q124 244 217 126T492 8Z" />
<glyph unicode="e" glyph-name="e" horiz-adv-x="1000" d="M528 996Q605 996 672 969T788 887T866 755T894 574Q894 569 891 567T882 564H126Q124 550 124 537T124 510Q124 388 153 295T235 138T364 41T532 8Q615 8 674 26T773 66T833 106T860 124Q864 124 868
120L872 116Q855 95 822 73T743 31T643 0T532 -12Q431 -12 351 23T216 126T130 290T100 510Q100 618 129 707T213 861T347 960T528 996ZM528 976Q440 976 370 948T248 868T167 743T127 582H872Q872 677 846 750T774 874T664 950T528 976Z" />
<glyph unicode="f" glyph-name="f" horiz-adv-x="618" d="M210 0V918L46 922Q34 922 34 930V938H210V1088Q210 1172 230 1233T285 1335T370 1394T478 1414Q507 1414 538 1409T590 1392L588 1384Q586 1378 581 1378Q571 1378 548 1386T478 1394Q426 1394 382 1378T304
1325T253 1230T234 1088V938H584V918H234V0H210Z" />
<glyph unicode="g" glyph-name="g" horiz-adv-x="996" d="M490 996Q555 996 608 979T704 932H942V928Q942 922 937 918T926 914L730 910Q775 868 798 811T822 684Q822 614 799 557T732 458T627 395T490 372Q392 372 318 409Q293 395 272 377T236 339T213 298T204
258Q204 208 235 182T317 142T433 126T566 119T699 109T815 82T897 24T928 -78Q928 -137 898 -190T812 -285T678 -351T502 -376Q403 -376 327 -355T199 -298T121 -214T94 -112Q94 -28 151 32T305 126Q249 140 216 170T182 258Q182 278 190 300T214 343T250 384T299
419Q231 459 195 527T158 684Q158 753 181 810T247 909T352 973T490 996ZM906 -78Q906 -22 879 11T805 63T700 89T577 99T450 106T334 119Q287 102 247 80T179 29T134 -35T118 -112Q118 -163 145 -207T221 -285T342 -337T502 -356Q581 -356 654 -336T783 -279T872
-191T906 -78ZM490 392Q563 392 620 413T716 472T777 565T798 684Q798 749 777 803T715 895T618 955T490 976Q419 976 362 955T265 896T204 803T182 684Q182 619 203 565T265 473T362 413T490 392Z" />
<glyph unicode="h" glyph-name="h" horiz-adv-x="1056" d="M176 0V1440H200V776Q234 826 276 866T368 936T471 980T582 996Q745 996 825 899T906 628V0H882V628Q882 710 864 774T809 884T715 952T582 976Q467 976 370 915T200 745V0H176Z" />
<glyph unicode="i" glyph-name="i" horiz-adv-x="444" d="M234 980V0H210V980H234ZM278 1344Q278 1323 261 1307T222 1290Q199 1290 183 1306T166 1344Q166 1367 182 1383T222 1400Q243 1400 260 1384T278 1344Z" />
<glyph unicode="j" glyph-name="j" horiz-adv-x="440" d="M234 980V-172Q234 -216 220 -253T181 -317T119 -359T38 -374Q11 -374 -8 -369T-46 -352L-42 -344Q-38 -336 -33 -336Q-25 -336 -9 -345T38 -354Q123 -354 166 -304T210 -172V980H234ZM278 1344Q278 1323
261 1307T222 1290Q199 1290 183 1306T166 1344Q166 1367 182 1383T222 1400Q243 1400 260 1384T278 1344Z" />
<glyph unicode="k" glyph-name="k" horiz-adv-x="928" d="M214 1440V536H260Q269 536 281 538T308 554L774 964Q782 972 790 976T810 980H828L332 546Q319 534 307 529Q321 525 331 519T350 504L868 0H850Q842 0 836 2T822 12L330 490Q322 498 315 503T299 512T280
516T254 518H214V0H190V1440H214Z" />
<glyph unicode="l" glyph-name="l" horiz-adv-x="444" d="M234 1440V0H210V1440H234Z" />
<glyph unicode="m" glyph-name="m" horiz-adv-x="1548" d="M176 0V980H182Q196 980 196 964L199 779Q256 878 338 937T516 996Q634 996 700 923T783 715Q795 786 824 839T896 927T989 979T1096 996Q1165 996 1221 972T1316 902T1376 786T1398 628V0H1374V628Q1374
797 1302 886T1096 976Q1037 976 983 954T886 889T819 780T794 628V0H770V628Q770 710 754 774T705 884T624 952T514 976Q419 976 340 916T200 748V0H176Z" />
<glyph unicode="n" glyph-name="n" horiz-adv-x="1056" d="M176 0V980H182Q196 980 196 964L199 775Q233 825 275 866T367 936T470 980T582 996Q745 996 825 899T906 628V0H882V628Q882 710 864 774T809 884T715 952T582 976Q467 976 370 915T200 745V0H176Z" />
<glyph unicode="o" glyph-name="o" horiz-adv-x="1056" d="M528 996Q631 996 711 960T845 857T928 698T956 490Q956 376 928 284T846 125T711 24T528 -12Q424 -12 345 23T211 125T128 283T100 490Q100 604 128 697T210 857T344 959T528 996ZM528 8Q628 8 704 43T830
141T906 293T932 490Q932 598 907 687T831 841T704 940T528 976Q427 976 352 941T226 841T150 688T124 490Q124 382 149 293T225 141T351 43T528 8Z" />
<glyph unicode="p" glyph-name="p" horiz-adv-x="1042" d="M176 -360V980H182Q196 980 196 964L199 778Q265 879 358 937T564 996Q754 996 855 874T956 496Q956 389 929 297T847 136T713 28T526 -12Q310 -12 200 163V-360H176ZM564 976Q455 976 362 915T200 746V195Q264
92 343 50T526 8Q629 8 705 45T831 149T907 304T932 496Q932 740 839 858T564 976Z" />
<glyph unicode="q" glyph-name="q" horiz-adv-x="1070" d="M880 980V-360H856V205Q790 105 697 47T492 -12Q301 -12 201 110T100 488Q100 594 127 687T208 848T342 956T530 996Q638 996 719 953T856 820L860 964Q860 980 874 980H880ZM492 8Q601 8 694 69T856
237V789Q796 888 715 932T530 976Q427 976 351 939T225 835T149 680T124 488Q124 244 217 126T492 8Z" />
<glyph unicode="r" glyph-name="r" horiz-adv-x="784" d="M176 0V980H182Q196 980 196 964L199 692Q220 765 251 821T324 917T419 976T540 996Q588 996 629 986T708 958L704 950Q702 947 701 945T694 942Q689 942 678 947T648 958T603 969T540 974Q409 974 328
888T200 644V0H176Z" />
<glyph unicode="s" glyph-name="s" horiz-adv-x="854" d="M696 894Q692 888 686 888Q678 888 663 901T618 931T543 962T432 976Q370 976 319 957T230 907T173 834T152 748Q152 695 177 660T242 600T335 558T441 525T547 490T639 443T705 375T730 274Q730 214 709
161T646 69T546 7T410 -16Q357 -16 316 -8T239 16T173 53T112 102L118 108Q121 111 123 112T130 114Q138 114 156 97T206 59T288 21T410 4Q482 4 537 25T631 82T688 167T708 272Q708 329 683 366T618 430T525 473T419 507T313 541T221 585T155 651T130 748Q130
797 152 841T214 920T309 975T432 996Q515 996 578 974T700 900L696 894Z" />
<glyph unicode="t" glyph-name="t" horiz-adv-x="684" d="M418 -16Q332 -16 283 31T234 186V918H72Q58 918 58 928V934L234 938L242 1332Q242 1337 244 1341T252 1346H258V938H592V918H258V186Q258 136 270 102T305 46T356 14T418 4Q460 4 491 17T545 45T580 73T600
86Q604 86 608 82L612 78Q597 58 576 41T529 11T475 -9T418 -16Z" />
<glyph unicode="u" glyph-name="u" horiz-adv-x="1056" d="M174 980V352Q174 270 192 206T247 96T341 28T474 4Q589 4 685 65T856 234V980H880V0H874Q860 0 860 16L856 204Q821 154 779 113T688 44T585 0T474 -16Q310 -16 230 81T150 352V980H174Z" />
<glyph unicode="v" glyph-name="v" horiz-adv-x="930" d="M30 980H44Q52 980 56 976T62 966L452 68Q456 59 459 50T465 31Q467 41 470 50T478 68L868 966Q875 980 886 980H900L474 0H456L30 980Z" />
<glyph unicode="w" glyph-name="w" horiz-adv-x="1424" d="M30 980H44Q52 980 56 976T62 966L362 68Q366 57 369 47T375 26Q377 37 380 47T388 68L700 976Q703 986 710 986H716Q723 986 726 976L1036 68Q1040 57 1043 46T1049 27Q1054 46 1062 68L1362 966Q1369
980 1380 980H1394L1058 0H1048Q1039 0 1036 10L722 922Q716 938 713 950Q711 943 709 937T704 922L386 10Q383 0 376 0H366L30 980Z" />
<glyph unicode="x" glyph-name="x" horiz-adv-x="846" d="M406 498L54 980H76Q84 980 88 975T94 966L423 511Q425 515 427 518T432 526L752 966Q755 971 759 975T770 980H792L439 501L806 0H784Q776 0 772 5T766 14L422 488Q421 483 414 474L80 14Q76 9 72 5T62
0H40L406 498Z" />
<glyph unicode="y" glyph-name="y" horiz-adv-x="930" d="M324 -338Q321 -346 315 -353T300 -360H286L454 17L30 980H44Q52 980 57 976T64 966L454 76Q458 67 461 58T467 39Q469 49 472 58T480 76L870 966Q877 980 888 980H902L324 -338Z" />
<glyph unicode="z" glyph-name="z" horiz-adv-x="888" d="M804 970Q804 967 803 965T798 958L112 20H774V0H78V6Q78 11 79 13T84 20L771 960H112V980H804V970Z" />
<glyph unicode="{" glyph-name="braceleft" horiz-adv-x="600" d="M252 462Q252 496 239 525T203 575T149 608T80 620V640Q117 640 148 651T203 684T239 734T252 798Q252 856 242 911T218 1020T195 1129T184 1244Q184 1298 201 1345T250 1427T326 1482T424 1502H480V1494Q480
1484 468 1484H424Q377 1484 338 1467T269 1419T223 1343T206 1244Q206 1187 216 1132T240 1021T263 910T274 798Q274 760 261 731T226 680T179 647T128 630Q153 625 179 613T226 579T260 529T274 462Q274 406 264 351T240 240T217 129T206 16Q206 -39 222 -83T268
-158T337 -207T424 -224H468Q480 -224 480 -234V-242H424Q371 -242 327 -222T251 -167T202 -85T184 16Q184 75 194 130T218 240T241 348T252 462Z" />
<glyph unicode="|" glyph-name="bar" horiz-adv-x="600" d="M290 1502H310V-360H290V1502Z" />
<glyph unicode="}" glyph-name="braceright" horiz-adv-x="600" d="M348 462Q348 403 358 349T382 240T405 131T416 16Q416 -38 399 -85T350 -167T274 -222T176 -242H120V-234Q120 -224 132 -224H176Q222 -224 262 -207T331 -159T377 -83T394 16Q394 73 384 128T360
239T337 350T326 462Q326 500 339 529T374 579T421 612T471 630Q447 634 421 646T374 680T340 730T326 798Q326 854 336 909T360 1020T383 1131T394 1244Q394 1299 378 1343T332 1418T262 1467T176 1484H132Q120 1484 120 1494V1502H176Q229 1502 273 1482T349
1427T398 1345T416 1244Q416 1185 406 1130T382 1020T359 911T348 798Q348 763 361 734T397 684T451 652T520 640V620Q483 620 452 608T397 575T361 525T348 462Z" />
<glyph unicode="~" glyph-name="asciitilde" horiz-adv-x="1160" d="M796 528Q838 528 871 543T929 586T966 649T980 728H1000Q1000 684 987 645T947 575T883 526T796 508Q745 508 689 530T577 580T467 629T364 652Q322 652 289 637T231 594T194 531T180 452H160Q160
495 173 535T213 605T277 654T364 672Q415 672 471 650T583 600T693 551T796 528Z" />
<glyph unicode="&#xa0;" glyph-name="uni00A0" horiz-adv-x="386" />
<glyph unicode="&#xa1;" glyph-name="exclamdown" horiz-adv-x="610" d="M294 -360V198Q294 242 294 280T295 359T297 445T300 550H316Q317 491 318 445T320 359T321 281T322 198V-360H294ZM240 932Q240 959 258 977T304 996Q331 996 350 978T370 932Q370 905
351 886T304 866Q277 866 259 885T240 932Z" />
<glyph unicode="&#xa2;" glyph-name="cent" horiz-adv-x="1160" d="M612 -11Q512 -8 432 27T294 126T207 282T176 490Q176 604 208 697T300 857T447 959T646 996L654 1226Q654 1242 666 1242H676L667 995Q758 992 828 964T950 894L944 888Q940 884 936 884Q930
884 913 897T864 927T784 959T667 976L634 8Q718 9 777 27T873 66T930 106T956 124Q960 124 964 120L968 116Q952 94 921 72T847 31T750 1T634 -12L626 -252Q626 -268 614 -268H604L612 -11ZM200 490Q200 377 229 289T313 139T443 44T613 8L645 976Q540 976 458
942T318 845T231 692T200 490Z" />
<glyph unicode="&#xa3;" glyph-name="sterling" horiz-adv-x="1160" d="M80 656Q80 662 84 665T94 668H286V990Q286 1082 311 1160T385 1294T507 1382T676 1414Q750 1414 806 1396T903 1348T972 1278T1020 1192L1012 1190Q1010 1189 1009 1189H1005Q999 1189 992
1200Q972 1236 948 1271T887 1333T800 1377T676 1394Q586 1394 518 1364T403 1281T334 1153T310 990V668H822V658Q822 653 819 651T810 648H310V290Q310 238 298 197T264 122T211 64T141 19Q161 21 177 21T214 22H1096V12Q1096 7 1092 4T1082 0H106V22Q141 38 173
60T231 114T271 189T286 290V648H80V656Z" />
<glyph unicode="&#xa4;" glyph-name="currency" horiz-adv-x="1160" d="M250 670Q250 736 273 794T339 897L182 1054L196 1068L353 911Q398 953 456 977T580 1002Q646 1002 704 978T808 912L964 1068L978 1054L822 898Q864 853 888 795T912 670Q912 604 888 546T821
443L978 286L964 272L807 429Q762 387 704 364T580 340Q514 340 457 364T354 430L196 272L182 286L340 444Q298 489 274 546T250 670ZM270 670Q270 606 294 550T361 451T459 385T580 360Q644 360 701 384T800 451T867 549T892 670Q892 734 868 791T801 890T701
957T580 982Q516 982 460 958T361 891T295 791T270 670Z" />
<glyph unicode="&#xa5;" glyph-name="yen" horiz-adv-x="1160" d="M174 608H555L120 1400H140Q149 1400 154 1392L560 642Q565 634 568 628T574 613Q577 621 580 627T588 642L994 1392Q999 1400 1008 1400H1028L593 608H974V588H586V460H974V440H586V0H562V440H174V460H562V588H174V608Z"
/>
<glyph unicode="&#xa6;" glyph-name="brokenbar" horiz-adv-x="600" d="M290 1502H310V740H290V1502ZM290 402H310V-360H290V402Z" />
<glyph unicode="&#xa7;" glyph-name="section" horiz-adv-x="998" d="M536 1416Q619 1416 682 1394T802 1318L799 1313Q795 1308 790 1308Q782 1308 767 1321T722 1351T647 1382T536 1396Q474 1396 423 1377T334 1327T277 1254T256 1168Q256 1115 281 1076T349
1007T444 952T553 903T662 851T757 788T824 706T850 596Q850 511 806 452T687 356Q741 318 775 270T810 154Q810 94 789 41T726 -51T626 -113T490 -136Q437 -136 396 -128T319 -104T253 -67T192 -18L198 -12Q201 -9 203 -8T210 -6Q218 -6 236 -23T286 -61T368 -99T490
-116Q562 -116 617 -95T711 -38T768 47T788 152Q788 209 761 251T690 326T590 385T474 437T359 489T258 549T187 626T160 728Q160 764 171 798T206 862T269 919T365 967Q336 985 312 1005T271 1049T244 1103T234 1168Q234 1217 256 1261T318 1340T413 1395T536
1416ZM182 728Q182 679 205 642T266 574T355 518T460 470T568 422T668 368Q753 407 790 464T828 594Q828 648 808 689T752 762T672 818T578 865T478 909T384 956Q273 912 228 856T182 728Z" />
<glyph unicode="&#xa8;" glyph-name="dieresis" horiz-adv-x="560" d="M172 1280Q172 1259 155 1243T116 1226Q93 1226 77 1242T60 1280Q60 1303 76 1319T116 1336Q137 1336 154 1320T172 1280ZM500 1280Q500 1259 483 1243T444 1226Q421 1226 405 1242T388 1280Q388
1303 404 1319T444 1336Q465 1336 482 1320T500 1280Z" />
<glyph unicode="&#xa9;" glyph-name="copyright" horiz-adv-x="1628" d="M1136 384Q1138 386 1142 386Q1146 386 1152 380L1156 376Q1126 350 1093 328T1019 290T930 265T824 256Q729 256 650 287T513 375T423 515T390 700Q390 800 422 882T514 1022T655 1113T838
1146Q889 1146 930 1140T1006 1121T1074 1089T1138 1044L1134 1038Q1131 1034 1126 1034Q1118 1034 1101 1048T1051 1080T967 1111T838 1126Q744 1126 666 1097T532 1012T445 877T414 700Q414 600 445 522T530 389T660 305T824 276Q881 276 925 283T1006 303T1074
337T1136 384ZM100 700Q100 848 156 978T309 1205T536 1358T814 1414Q962 1414 1092 1358T1319 1205T1472 978T1528 700Q1528 552 1472 422T1319 195T1092 42T814 -14Q666 -14 536 42T309 195T156 422T100 700ZM124 700Q124 557 178 431T325 212T545 64T814 10Q910
10 998 34T1163 104T1303 212T1411 351T1481 516T1506 700Q1506 795 1482 883T1412 1049T1303 1189T1163 1297T998 1367T814 1392Q718 1392 630 1368T466 1298T326 1189T218 1049T149 884T124 700Z" />
<glyph unicode="&#xaa;" glyph-name="ordfeminine" horiz-adv-x="660" d="M530 838Q522 838 520 848L516 936Q464 885 409 857T276 828Q247 828 219 836T169 861T132 905T118 970Q118 1008 141 1039T213 1094T337 1130T516 1146V1210H538V838H530ZM278 848Q319
848 352 857T414 881T468 917T516 960V1126Q324 1120 232 1081T140 972Q140 939 152 916T183 877T227 855T278 848ZM516 1210Q516 1298 477 1345T352 1392Q305 1392 272 1380T217 1352T183 1325T164 1312Q160 1312 156 1316L152 1322Q196 1367 243 1389T352 1412Q447
1412 492 1359T538 1210H516Z" />
<glyph unicode="&#xab;" glyph-name="guillemotleft" horiz-adv-x="828" d="M170 508V512L404 882L410 878Q416 873 416 866Q416 861 412 854L208 532Q194 512 190 510Q196 506 208 488L412 166Q416 159 416 154Q416 146 410 142L404 138L170 508ZM390 508V512L624
882L630 878Q636 873 636 866Q636 861 632 854L428 532Q414 512 410 510Q416 506 428 488L632 166Q636 159 636 154Q636 146 630 142L624 138L390 508Z" />
<glyph unicode="&#xac;" glyph-name="logicalnot" horiz-adv-x="1160" d="M178 680H980V360H958V660H178V680Z" />
<glyph unicode="&#xad;" glyph-name="uni00AD" horiz-adv-x="640" d="M100 598H540V578H100V598Z" />
<glyph unicode="&#xae;" glyph-name="registered" horiz-adv-x="1628" d="M100 700Q100 848 156 978T309 1205T536 1358T814 1414Q962 1414 1092 1358T1319 1205T1472 978T1528 700Q1528 552 1472 422T1319 195T1092 42T814 -14Q666 -14 536 42T309 195T156 422T100
700ZM124 700Q124 557 178 431T325 212T545 64T814 10Q910 10 998 34T1163 104T1303 212T1411 351T1481 516T1506 700Q1506 795 1482 883T1412 1049T1303 1189T1163 1297T998 1367T814 1392Q718 1392 630 1368T466 1298T326 1189T218 1049T149 884T124 700ZM598
684V260H574V1140H786Q923 1140 997 1087T1072 920Q1072 867 1052 825T995 752T907 704T794 684Q803 680 810 674T826 658L1160 260H1140Q1135 260 1132 261T1124 268L794 662Q786 671 775 677T734 684H598ZM598 704H774Q904 704 976 760T1048 920Q1048 1026 983
1073T786 1120H598V704Z" />
<glyph unicode="&#xaf;" glyph-name="overscore" horiz-adv-x="560" d="M20 1290H540V1270H20V1290Z" />
<glyph unicode="&#xb0;" glyph-name="degree" horiz-adv-x="778" d="M108 1140Q108 1198 130 1248T189 1335T278 1394T388 1416Q446 1416 497 1395T586 1336T646 1248T668 1140Q668 1082 646 1032T587 944T498 884T388 862Q329 862 278 884T190 943T130 1031T108
1140ZM132 1140Q132 1087 152 1040T206 959T288 904T388 884Q441 884 488 904T569 958T624 1040T644 1140Q644 1193 624 1240T570 1321T488 1376T388 1396Q335 1396 288 1376T207 1322T152 1240T132 1140Z" />
<glyph unicode="&#xb1;" glyph-name="plusminus" horiz-adv-x="1160" d="M588 1110V680H1040V660H588V228H568V660H118V680H568V1110H588ZM118 100H1040V80H118V100Z" />
<glyph unicode="&#xb2;" glyph-name="twosuperior" horiz-adv-x="660" d="M340 1610Q377 1610 412 1599T475 1566T519 1508T536 1424Q536 1384 524 1350T490 1285T440 1223T382 1162L140 916Q163 920 202 920H546Q554 920 554 912V900H112V908Q112 914 118 920L366
1172Q397 1203 424 1232T471 1292T502 1354T514 1424Q514 1467 499 1498T460 1550T405 1580T340 1590Q265 1590 217 1547T154 1434Q151 1424 140 1424L130 1426Q136 1469 154 1503T199 1561T262 1597T340 1610Z" />
<glyph unicode="&#xb3;" glyph-name="threesuperior" horiz-adv-x="660" d="M344 1610Q381 1610 416 1600T477 1568T520 1513T536 1434Q536 1399 524 1370T491 1319T443 1283T385 1263Q468 1253 512 1206T556 1088Q556 1047 540 1012T493 950T423 908T334 892Q272
892 232 909T168 953T130 1010T110 1068L118 1072Q122 1074 125 1074Q132 1074 134 1069T138 1057Q141 1045 150 1021T181 972T239 929T334 910Q383 910 420 926T482 968T519 1025T532 1086Q532 1121 520 1151T483 1204T416 1239T316 1252V1268Q410 1271 462 1315T514
1432Q514 1473 500 1503T462 1552T408 1581T344 1590Q304 1590 273 1578T218 1544T179 1495T158 1434Q156 1424 148 1424Q145 1425 142 1425Q136 1425 134 1426Q140 1469 158 1503T203 1561T266 1597T344 1610Z" />
<glyph unicode="&#xb4;" glyph-name="acute" horiz-adv-x="560" d="M448 1416L246 1166Q239 1158 230 1158H216L380 1394Q389 1408 397 1412T422 1416H448Z" />
<glyph unicode="&#xb5;" glyph-name="mu" horiz-adv-x="1056" d="M174 980V336Q174 260 192 199T248 95T342 28T474 4Q589 4 685 65T856 234V980H880V0H874Q861 0 856 16V204Q821 154 779 113T688 44T585 0T474 -16Q344 -16 270 45T171 220Q172 170 173 113T174
10V-360H162Q156 -360 153 -357T150 -348V980H174Z" />
<glyph unicode="&#xb6;" glyph-name="paragraph" horiz-adv-x="1200" d="M1150 1378H920V-180H896V1378H524V-180H500V732Q397 732 316 758T179 830T94 939T64 1076Q64 1151 93 1211T179 1313T316 1377T500 1400H1150V1378Z" />
<glyph unicode="&#xb7;" glyph-name="middot" horiz-adv-x="520" d="M200 590Q200 616 217 634T258 652Q284 652 302 634T320 590Q320 567 302 550T258 532Q235 532 218 549T200 590Z" />
<glyph unicode="&#xb8;" glyph-name="cedilla" horiz-adv-x="560" d="M146 -296Q150 -296 159 -303T184 -318T223 -333T282 -340Q342 -340 376 -314T410 -240Q410 -209 395 -189T354 -157T293 -138T218 -126L258 0H276L241 -109Q284 -116 319 -125T379 -149T418
-185T432 -238Q432 -267 421 -289T388 -326T339 -350T276 -358Q235 -358 195 -344T132 -306L136 -302Q142 -296 146 -296Z" />
<glyph unicode="&#xb9;" glyph-name="onesuperior" horiz-adv-x="660" d="M200 918H368V1544L372 1577L196 1418Q193 1415 189 1415Q184 1415 181 1419L176 1428L376 1606H392V918H554V900H200V918Z" />
<glyph unicode="&#xba;" glyph-name="ordmasculine" horiz-adv-x="734" d="M368 1412Q432 1412 481 1391T565 1332T616 1239T634 1118Q634 1051 617 997T565 905T482 847T368 826Q303 826 254 846T170 905T118 997T100 1118Q100 1185 117 1239T169 1331T253 1391T368
1412ZM368 842Q429 842 475 862T552 918T598 1005T614 1118Q614 1180 599 1231T552 1319T475 1376T368 1396Q306 1396 260 1376T183 1320T136 1232T120 1118Q120 1056 135 1005T182 918T260 862T368 842Z" />
<glyph unicode="&#xbb;" glyph-name="guillemotright" horiz-adv-x="828" d="M434 512V508L200 138L194 142Q188 146 188 154Q188 159 192 166L396 488Q402 498 406 503T414 510Q408 513 396 532L192 854Q188 861 188 866Q188 873 194 878L200 882L434 512ZM654
512V508L420 138L414 142Q408 146 408 154Q408 159 412 166L616 488Q622 498 626 503T634 510Q628 513 616 532L412 854Q408 861 408 866Q408 873 414 878L420 882L654 512Z" />
<glyph unicode="&#xbc;" glyph-name="onequarter" horiz-adv-x="1424" d="M1242 230H1384V220Q1384 212 1374 212H1242V0H1220V212H878Q867 212 866 218L864 228L1224 702H1242V230ZM1220 646Q1220 651 1220 657T1221 669L890 230H1220V646ZM186 716H354V1342L358
1375L182 1216Q179 1213 175 1213Q170 1213 167 1217L162 1226L362 1404H378V716H540V698H186V716ZM385 12Q380 4 375 2T363 0H353L1137 1388Q1143 1400 1157 1400H1169L385 12Z" />
<glyph unicode="&#xbd;" glyph-name="onehalf" horiz-adv-x="1424" d="M1126 710Q1163 710 1198 699T1261 666T1305 608T1322 524Q1322 484 1310 450T1276 385T1226 323T1168 262L926 16Q949 20 988 20H1332Q1340 20 1340 12V0H898V8Q898 14 904 20L1152 272Q1183
303 1210 332T1257 392T1288 454T1300 524Q1300 567 1285 598T1246 650T1191 680T1126 690Q1051 690 1003 647T940 534Q937 524 926 524L916 526Q922 569 940 603T985 661T1048 697T1126 710ZM186 716H354V1342L358 1375L182 1216Q179 1213 175 1213Q170 1213 167
1217L162 1226L362 1404H378V716H540V698H186V716ZM336 12Q331 4 326 2T314 0H304L1088 1388Q1094 1400 1108 1400H1120L336 12Z" />
<glyph unicode="&#xbe;" glyph-name="threequarters" horiz-adv-x="1430" d="M1242 230H1384V220Q1384 212 1374 212H1242V0H1220V212H878Q867 212 866 218L864 228L1224 702H1242V230ZM1220 646Q1220 651 1220 657T1221 669L890 230H1220V646ZM330 1408Q367 1408
402 1398T463 1366T506 1311T522 1232Q522 1197 510 1168T477 1117T429 1081T371 1061Q454 1051 498 1004T542 886Q542 845 526 810T479 748T409 706T320 690Q258 690 218 707T154 751T116 808T96 866L104 870Q108 872 110 872Q118 872 120 867T124 855Q127 843
136 819T167 770T225 727T320 708Q369 708 406 724T468 766T505 823T518 884Q518 919 506 949T469 1002T402 1037T302 1050V1066Q396 1069 448 1113T500 1230Q500 1271 486 1301T448 1350T394 1379T330 1388Q255 1388 207 1345T144 1232Q141 1222 132 1222L120
1224Q126 1267 144 1301T189 1359T252 1395T330 1408ZM396 12Q391 4 386 2T374 0H364L1148 1388Q1154 1400 1168 1400H1180L396 12Z" />
<glyph unicode="&#xbf;" glyph-name="questiondown" horiz-adv-x="694" d="M662 -234Q638 -260 608 -284T540 -327T457 -358T360 -370Q298 -370 241 -351T139 -295T67 -206T40 -86Q40 -11 64 43T126 136T206 205T287 260T349 314T376 378L382 550H398V376Q398
337 374 308T312 252T231 197T151 130T89 39T64 -86Q64 -148 89 -197T155 -280T249 -332T360 -350Q432 -350 484 -330T571 -286T624 -242T649 -222Q652 -222 656 -226L662 -234ZM326 930Q326 957 344 976T390 996Q417 996 436 977T456 930Q456 903 437 885T390
866Q363 866 345 884T326 930Z" />
<glyph unicode="&#xc0;" glyph-name="Agrave" horiz-adv-x="1228" d="M414 1760Q431 1760 439 1757T456 1746L698 1538H686Q677 1538 668 1544L378 1760H414ZM1208 0H1190Q1181 0 1178 10L983 478H245L50 10Q47 0 36 0H20L604 1400H624L1208 0ZM253 498H975L630
1326Q625 1337 622 1346T614 1367Q610 1356 607 1347T598 1326L253 498Z" />
<glyph unicode="&#xc1;" glyph-name="Aacute" horiz-adv-x="1228" d="M858 1760L568 1544Q559 1538 550 1538H538L780 1746Q789 1754 797 1757T822 1760H858ZM1208 0H1190Q1181 0 1178 10L983 478H245L50 10Q47 0 36 0H20L604 1400H624L1208 0ZM253 498H975L630
1326Q625 1337 622 1346T614 1367Q610 1356 607 1347T598 1326L253 498Z" />
<glyph unicode="&#xc2;" glyph-name="Acircumflex" horiz-adv-x="1228" d="M854 1538H834Q829 1538 824 1539T814 1546L618 1706Q616 1707 616 1708T614 1710L610 1706L414 1546Q405 1538 394 1538H374L606 1728H622L854 1538ZM1208 0H1190Q1181 0 1178 10L983
478H245L50 10Q47 0 36 0H20L604 1400H624L1208 0ZM253 498H975L630 1326Q625 1337 622 1346T614 1367Q610 1356 607 1347T598 1326L253 498Z" />
<glyph unicode="&#xc3;" glyph-name="Atilde" horiz-adv-x="1228" d="M732 1576Q782 1576 806 1609T832 1690H848Q848 1663 841 1639T820 1596T784 1567T732 1556Q700 1556 672 1574T617 1614T564 1654T508 1672Q484 1672 466 1663T435 1639T416 1602T408 1558H390Q390
1585 397 1609T420 1652T457 1681T508 1692Q541 1692 569 1674T623 1634T676 1594T732 1576ZM1208 0H1190Q1181 0 1178 10L983 478H245L50 10Q47 0 36 0H20L604 1400H624L1208 0ZM253 498H975L630 1326Q625 1337 622 1346T614 1367Q610 1356 607 1347T598 1326L253
498Z" />
<glyph unicode="&#xc4;" glyph-name="Adieresis" horiz-adv-x="1228" d="M466 1664Q466 1643 449 1627T410 1610Q387 1610 371 1626T354 1664Q354 1687 370 1703T410 1720Q431 1720 448 1704T466 1664ZM874 1664Q874 1643 857 1627T818 1610Q795 1610 779 1626T762
1664Q762 1687 778 1703T818 1720Q839 1720 856 1704T874 1664ZM1208 0H1190Q1181 0 1178 10L983 478H245L50 10Q47 0 36 0H20L604 1400H624L1208 0ZM253 498H975L630 1326Q625 1337 622 1346T614 1367Q610 1356 607 1347T598 1326L253 498Z" />
<glyph unicode="&#xc5;" glyph-name="Aring" horiz-adv-x="1228" d="M466 1604Q466 1635 477 1661T509 1706T556 1737T614 1748Q645 1748 672 1737T719 1707T750 1661T762 1604Q762 1573 751 1547T719 1502T672 1471T614 1460Q583 1460 556 1471T509 1501T478
1547T466 1604ZM488 1604Q488 1577 497 1554T524 1514T564 1488T614 1478Q641 1478 664 1487T704 1514T730 1554T740 1604Q740 1631 731 1654T704 1694T664 1720T614 1730Q587 1730 564 1721T524 1694T498 1654T488 1604ZM1208 0H1190Q1181 0 1178 10L983 478H245L50
10Q47 0 36 0H20L604 1400H624L1208 0ZM253 498H975L630 1326Q625 1337 622 1346T614 1367Q610 1356 607 1347T598 1326L253 498Z" />
<glyph unicode="&#xc6;" glyph-name="AE" horiz-adv-x="1838" d="M790 1400H1696V1378H823L908 722H1576V700H911L999 22H1698L1696 0H980L918 478H289L19 8Q15 0 6 0H-14L790 1400ZM300 498H915L801 1378Q796 1364 791 1353T776 1326L300 498Z" />
<glyph unicode="&#xc7;" glyph-name="Ccedilla" horiz-adv-x="1438" d="M668 -296Q672 -296 681 -303T706 -318T745 -333T804 -340Q864 -340 898 -314T932 -240Q932 -209 917 -189T876 -157T815 -138T740 -126L775 -15Q640 -10 526 42T330 186T201 408T154 700Q154
860 202 992T339 1218T551 1364T824 1416Q900 1416 961 1406T1075 1376T1175 1324T1272 1252L1268 1246Q1265 1242 1260 1242Q1253 1242 1239 1253T1203 1282T1147 1319T1067 1356T961 1384T824 1396Q682 1396 564 1348T360 1209T226 989T178 700Q178 537 225 408T357
189T555 52T804 4Q889 4 956 16T1078 51T1181 107T1276 184Q1281 189 1284 189Q1288 189 1291 186L1300 178Q1256 135 1206 100T1095 39T963 -1T804 -16H793L763 -109Q806 -116 841 -125T901 -149T940 -185T954 -238Q954 -267 943 -289T910 -326T861 -350T798 -358Q757
-358 717 -344T654 -306L658 -302Q664 -296 668 -296Z" />
<glyph unicode="&#xc8;" glyph-name="Egrave" horiz-adv-x="1200" d="M456 1760Q473 1760 481 1757T498 1746L740 1538H728Q719 1538 710 1544L420 1760H456ZM1058 1400V1378H264V722H938V700H264V22H1060L1058 0H240V1400H1058Z" />
<glyph unicode="&#xc9;" glyph-name="Eacute" horiz-adv-x="1200" d="M900 1760L610 1544Q601 1538 592 1538H580L822 1746Q831 1754 839 1757T864 1760H900ZM1058 1400V1378H264V722H938V700H264V22H1060L1058 0H240V1400H1058Z" />
<glyph unicode="&#xca;" glyph-name="Ecircumflex" horiz-adv-x="1200" d="M896 1538H876Q871 1538 866 1539T856 1546L660 1706L656 1710L652 1706L456 1546Q451 1541 446 1540T436 1538H416L648 1728H664L896 1538ZM1058 1400V1378H264V722H938V700H264V22H1060L1058
0H240V1400H1058Z" />
<glyph unicode="&#xcb;" glyph-name="Edieresis" horiz-adv-x="1200" d="M508 1664Q508 1643 491 1627T452 1610Q429 1610 413 1626T396 1664Q396 1687 412 1703T452 1720Q473 1720 490 1704T508 1664ZM916 1664Q916 1643 899 1627T860 1610Q837 1610 821 1626T804
1664Q804 1687 820 1703T860 1720Q881 1720 898 1704T916 1664ZM1058 1400V1378H264V722H938V700H264V22H1060L1058 0H240V1400H1058Z" />
<glyph unicode="&#xcc;" glyph-name="Igrave" horiz-adv-x="584" d="M94 1760Q111 1760 119 1757T136 1746L378 1538H366Q357 1538 348 1544L58 1760H94ZM304 0H280V1400H304V0Z" />
<glyph unicode="&#xcd;" glyph-name="Iacute" horiz-adv-x="584" d="M538 1760L248 1544Q239 1538 230 1538H218L460 1746Q469 1754 477 1757T502 1760H538ZM304 0H280V1400H304V0Z" />
<glyph unicode="&#xce;" glyph-name="Icircumflex" horiz-adv-x="584" d="M534 1538H514Q509 1538 504 1539T494 1546L298 1706L294 1710L290 1706L94 1546Q85 1538 74 1538H54L286 1728H302L534 1538ZM304 0H280V1400H304V0Z" />
<glyph unicode="&#xcf;" glyph-name="Idieresis" horiz-adv-x="584" d="M146 1664Q146 1643 129 1627T90 1610Q67 1610 51 1626T34 1664Q34 1687 50 1703T90 1720Q111 1720 128 1704T146 1664ZM554 1664Q554 1643 537 1627T498 1610Q475 1610 459 1626T442 1664Q442
1687 458 1703T498 1720Q519 1720 536 1704T554 1664ZM304 0H280V1400H304V0Z" />
<glyph unicode="&#xd0;" glyph-name="Eth" horiz-adv-x="1572" d="M48 722H280V1400H780Q924 1400 1043 1353T1247 1216T1380 996T1428 700Q1428 534 1381 404T1248 184T1043 47T780 0H280V702H48V722ZM1402 700Q1402 863 1357 989T1229 1203T1033 1335T780 1380H304V722H728V702H304V20H780Q918
20 1032 65T1229 197T1356 410T1402 700Z" />
<glyph unicode="&#xd1;" glyph-name="Ntilde" horiz-adv-x="1512" d="M920 1574Q970 1574 994 1607T1020 1688H1036Q1036 1661 1029 1637T1008 1594T972 1565T920 1554Q888 1554 860 1572T805 1612T752 1652T696 1670Q672 1670 654 1661T623 1637T604 1600T596
1556H578Q578 1583 585 1607T608 1650T645 1679T696 1690Q729 1690 757 1672T811 1632T864 1592T920 1574ZM248 1400Q257 1400 262 1392L1253 43Q1252 48 1252 53T1252 64V1400H1272V0H1266Q1260 0 1255 7L259 1362Q260 1356 260 1350T260 1338V0H240V1400H248V1400Z"
/>
<glyph unicode="&#xd2;" glyph-name="Ograve" horiz-adv-x="1594" d="M598 1760Q615 1760 623 1757T640 1746L882 1538H870Q861 1538 852 1544L562 1760H598ZM1444 700Q1444 534 1397 402T1264 178T1059 36T796 -14Q653 -14 535 35T331 177T198 402T150 700Q150
865 197 997T330 1223T534 1366T796 1416Q940 1416 1059 1367T1263 1224T1396 999T1444 700ZM1418 700Q1418 863 1373 992T1245 1211T1049 1348T796 1396Q660 1396 546 1349T350 1211T221 992T174 700Q174 537 220 409T349 191T546 54T796 6Q934 6 1048 53T1245
190T1372 408T1418 700Z" />
<glyph unicode="&#xd3;" glyph-name="Oacute" horiz-adv-x="1594" d="M1042 1760L752 1544Q743 1538 734 1538H722L964 1746Q973 1754 981 1757T1006 1760H1042ZM1444 700Q1444 534 1397 402T1264 178T1059 36T796 -14Q653 -14 535 35T331 177T198 402T150 700Q150
865 197 997T330 1223T534 1366T796 1416Q940 1416 1059 1367T1263 1224T1396 999T1444 700ZM1418 700Q1418 863 1373 992T1245 1211T1049 1348T796 1396Q660 1396 546 1349T350 1211T221 992T174 700Q174 537 220 409T349 191T546 54T796 6Q934 6 1048 53T1245
190T1372 408T1418 700Z" />
<glyph unicode="&#xd4;" glyph-name="Ocircumflex" horiz-adv-x="1594" d="M1038 1538H1018Q1013 1538 1008 1539T998 1546L802 1706L798 1710L794 1706L598 1546Q589 1538 578 1538H558L790 1728H806L1038 1538ZM1444 700Q1444 534 1397 402T1264 178T1059 36T796
-14Q653 -14 535 35T331 177T198 402T150 700Q150 865 197 997T330 1223T534 1366T796 1416Q940 1416 1059 1367T1263 1224T1396 999T1444 700ZM1418 700Q1418 863 1373 992T1245 1211T1049 1348T796 1396Q660 1396 546 1349T350 1211T221 992T174 700Q174 537
220 409T349 191T546 54T796 6Q934 6 1048 53T1245 190T1372 408T1418 700Z" />
<glyph unicode="&#xd5;" glyph-name="Otilde" horiz-adv-x="1594" d="M916 1576Q966 1576 990 1609T1016 1690H1032Q1032 1663 1025 1639T1004 1596T968 1567T916 1556Q884 1556 856 1574T801 1614T748 1654T692 1672Q668 1672 650 1663T619 1639T600 1602T592
1558H574Q574 1585 581 1609T604 1652T641 1681T692 1692Q725 1692 753 1674T807 1634T860 1594T916 1576ZM1444 700Q1444 534 1397 402T1264 178T1059 36T796 -14Q653 -14 535 35T331 177T198 402T150 700Q150 865 197 997T330 1223T534 1366T796 1416Q940 1416
1059 1367T1263 1224T1396 999T1444 700ZM1418 700Q1418 863 1373 992T1245 1211T1049 1348T796 1396Q660 1396 546 1349T350 1211T221 992T174 700Q174 537 220 409T349 191T546 54T796 6Q934 6 1048 53T1245 190T1372 408T1418 700Z" />
<glyph unicode="&#xd6;" glyph-name="Odieresis" horiz-adv-x="1594" d="M650 1664Q650 1643 633 1627T594 1610Q571 1610 555 1626T538 1664Q538 1687 554 1703T594 1720Q615 1720 632 1704T650 1664ZM1058 1664Q1058 1643 1041 1627T1002 1610Q979 1610 963
1626T946 1664Q946 1687 962 1703T1002 1720Q1023 1720 1040 1704T1058 1664ZM1444 700Q1444 534 1397 402T1264 178T1059 36T796 -14Q653 -14 535 35T331 177T198 402T150 700Q150 865 197 997T330 1223T534 1366T796 1416Q940 1416 1059 1367T1263 1224T1396
999T1444 700ZM1418 700Q1418 863 1373 992T1245 1211T1049 1348T796 1396Q660 1396 546 1349T350 1211T221 992T174 700Q174 537 220 409T349 191T546 54T796 6Q934 6 1048 53T1245 190T1372 408T1418 700Z" />
<glyph unicode="&#xd7;" glyph-name="multiply" horiz-adv-x="1160" d="M982 1056L595 670L982 282L968 268L580 655L190 266L176 280L565 670L176 1058L192 1074L580 685L966 1072L982 1056Z" />
<glyph unicode="&#xd8;" glyph-name="Oslash" horiz-adv-x="1594" d="M1444 700Q1444 534 1397 402T1264 178T1059 36T796 -14Q675 -14 572 21T386 124L226 -90Q217 -102 204 -102H190L370 138Q266 231 208 372T150 700Q150 865 197 997T330 1223T534 1366T796
1416Q922 1416 1028 1378T1218 1268L1356 1452Q1361 1458 1364 1461T1376 1464H1392L1234 1253Q1334 1159 1389 1020T1444 700ZM174 700Q174 520 229 383T383 156L1204 1250Q1124 1322 1021 1359T796 1396Q660 1396 546 1349T350 1211T221 992T174 700ZM1418 700Q1418
875 1366 1009T1220 1235L400 142Q479 75 579 41T796 6Q934 6 1048 53T1245 190T1372 408T1418 700Z" />
<glyph unicode="&#xd9;" glyph-name="Ugrave" horiz-adv-x="1472" d="M536 1760Q553 1760 561 1757T578 1746L820 1538H808Q799 1538 790 1544L500 1760H536ZM736 4Q849 4 938 44T1090 155T1185 319T1218 520V1400H1242V520Q1242 409 1207 311T1106 140T947 25T736
-18Q619 -18 526 24T366 140T265 311T230 520V1400H254V522Q254 415 287 321T382 156T533 45T736 4Z" />
<glyph unicode="&#xda;" glyph-name="Uacute" horiz-adv-x="1472" d="M980 1760L690 1544Q681 1538 672 1538H660L902 1746Q911 1754 919 1757T944 1760H980ZM736 4Q849 4 938 44T1090 155T1185 319T1218 520V1400H1242V520Q1242 409 1207 311T1106 140T947 25T736
-18Q619 -18 526 24T366 140T265 311T230 520V1400H254V522Q254 415 287 321T382 156T533 45T736 4Z" />
<glyph unicode="&#xdb;" glyph-name="Ucircumflex" horiz-adv-x="1472" d="M976 1538H956Q951 1538 946 1539T936 1546L740 1706L736 1710L732 1706L536 1546Q527 1538 516 1538H496L728 1728H744L976 1538ZM736 4Q849 4 938 44T1090 155T1185 319T1218 520V1400H1242V520Q1242
409 1207 311T1106 140T947 25T736 -18Q619 -18 526 24T366 140T265 311T230 520V1400H254V522Q254 415 287 321T382 156T533 45T736 4Z" />
<glyph unicode="&#xdc;" glyph-name="Udieresis" horiz-adv-x="1472" d="M588 1664Q588 1643 571 1627T532 1610Q509 1610 493 1626T476 1664Q476 1687 492 1703T532 1720Q553 1720 570 1704T588 1664ZM996 1664Q996 1643 979 1627T940 1610Q917 1610 901 1626T884
1664Q884 1687 900 1703T940 1720Q961 1720 978 1704T996 1664ZM736 4Q849 4 938 44T1090 155T1185 319T1218 520V1400H1242V520Q1242 409 1207 311T1106 140T947 25T736 -18Q619 -18 526 24T366 140T265 311T230 520V1400H254V522Q254 415 287 321T382 156T533
45T736 4Z" />
<glyph unicode="&#xdd;" glyph-name="Yacute" horiz-adv-x="1148" d="M818 1760L528 1544Q519 1538 510 1538H498L740 1746Q749 1754 757 1757T782 1760H818ZM586 595V0H562V595L40 1400H60Q69 1400 74 1392L545 662Q553 649 560 638T574 614Q579 626 587 637T603
662L1074 1392Q1079 1400 1088 1400H1108L586 595Z" />
<glyph unicode="&#xde;" glyph-name="Thorn" horiz-adv-x="1158" d="M304 298V0H280V1400H304V1098H596Q825 1098 947 999T1070 698Q1070 611 1036 538T938 411T788 328T596 298H304ZM304 318H596Q699 318 782 347T923 428T1014 549T1046 698Q1046 885 934 981T596
1078H304V318Z" />
<glyph unicode="&#xdf;" glyph-name="germandbls" horiz-adv-x="1106" d="M614 1414Q684 1414 742 1393T841 1337T905 1255T928 1160Q928 1095 903 1048T839 962T756 894T673 833T610 770T584 696Q584 655 601 629T648 583T714 551T790 523T866 490T932 444T978
375T996 274Q996 214 975 161T912 69T812 7T676 -16Q623 -16 582 -8T505 16T439 53T378 102L384 108Q387 111 389 112T396 114Q404 114 422 97T472 59T554 21T676 4Q748 4 803 25T897 82T954 167T974 272Q974 330 957 369T910 434T844 478T768 509T692 538T626
572T580 621T562 696Q562 740 587 774T651 840T735 901T818 969T882 1052T908 1162Q908 1192 893 1232T844 1308T753 1369T614 1394Q540 1394 472 1373T351 1305T266 1186T234 1010V0H210V1010Q210 1109 241 1184T327 1311T455 1388T614 1414Z" />
<glyph unicode="&#xe0;" glyph-name="agrave" horiz-adv-x="938" d="M784 0Q770 0 770 16L764 175Q722 131 680 96T591 36T490 -2T370 -16Q326 -16 282 -3T201 40T143 116T120 230Q120 296 158 348T276 438T477 496T764 522V648Q764 725 747 786T697 889T614 953T498
976Q446 976 404 965T329 938T272 903T229 868T200 841T184 830Q180 830 174 836L170 840Q242 916 319 956T498 996Q573 996 627 972T718 903T771 794T788 648V0H784ZM370 4Q439 4 495 20T598 63T685 125T764 200V502Q449 492 297 424T144 230Q144 171 163 129T214
59T286 18T370 4ZM362 1416Q379 1416 387 1412T404 1394L568 1158H554Q543 1158 538 1166L336 1416H362Z" />
<glyph unicode="&#xe1;" glyph-name="aacute" horiz-adv-x="938" d="M784 0Q770 0 770 16L764 175Q722 131 680 96T591 36T490 -2T370 -16Q326 -16 282 -3T201 40T143 116T120 230Q120 296 158 348T276 438T477 496T764 522V648Q764 725 747 786T697 889T614 953T498
976Q446 976 404 965T329 938T272 903T229 868T200 841T184 830Q180 830 174 836L170 840Q242 916 319 956T498 996Q573 996 627 972T718 903T771 794T788 648V0H784ZM370 4Q439 4 495 20T598 63T685 125T764 200V502Q449 492 297 424T144 230Q144 171 163 129T214
59T286 18T370 4ZM656 1416L454 1166Q447 1158 438 1158H424L588 1394Q597 1408 605 1412T630 1416H656Z" />
<glyph unicode="&#xe2;" glyph-name="acircumflex" horiz-adv-x="938" d="M784 0Q770 0 770 16L764 175Q722 131 680 96T591 36T490 -2T370 -16Q326 -16 282 -3T201 40T143 116T120 230Q120 296 158 348T276 438T477 496T764 522V648Q764 725 747 786T697 889T614
953T498 976Q446 976 404 965T329 938T272 903T229 868T200 841T184 830Q180 830 174 836L170 840Q242 916 319 956T498 996Q573 996 627 972T718 903T771 794T788 648V0H784ZM370 4Q439 4 495 20T598 63T685 125T764 200V502Q449 492 297 424T144 230Q144 171
163 129T214 59T286 18T370 4ZM708 1170H690Q682 1170 674 1178L494 1374L488 1380L482 1374L302 1178Q299 1175 295 1173T286 1170H268L480 1400H496L708 1170Z" />
<glyph unicode="&#xe3;" glyph-name="atilde" horiz-adv-x="938" d="M784 0Q770 0 770 16L764 175Q722 131 680 96T591 36T490 -2T370 -16Q326 -16 282 -3T201 40T143 116T120 230Q120 296 158 348T276 438T477 496T764 522V648Q764 725 747 786T697 889T614 953T498
976Q446 976 404 965T329 938T272 903T229 868T200 841T184 830Q180 830 174 836L170 840Q242 916 319 956T498 996Q573 996 627 972T718 903T771 794T788 648V0H784ZM370 4Q439 4 495 20T598 63T685 125T764 200V502Q449 492 297 424T144 230Q144 171 163 129T214
59T286 18T370 4ZM606 1242Q656 1242 680 1275T706 1356H722Q722 1329 715 1305T694 1262T658 1233T606 1222Q574 1222 546 1240T491 1280T438 1320T382 1338Q358 1338 340 1329T309 1305T290 1268T282 1224H264Q264 1251 271 1275T294 1318T331 1347T382 1358Q415
1358 443 1340T497 1300T550 1260T606 1242Z" />
<glyph unicode="&#xe4;" glyph-name="adieresis" horiz-adv-x="938" d="M784 0Q770 0 770 16L764 175Q722 131 680 96T591 36T490 -2T370 -16Q326 -16 282 -3T201 40T143 116T120 230Q120 296 158 348T276 438T477 496T764 522V648Q764 725 747 786T697 889T614
953T498 976Q446 976 404 965T329 938T272 903T229 868T200 841T184 830Q180 830 174 836L170 840Q242 916 319 956T498 996Q573 996 627 972T718 903T771 794T788 648V0H784ZM370 4Q439 4 495 20T598 63T685 125T764 200V502Q449 492 297 424T144 230Q144 171
163 129T214 59T286 18T370 4ZM380 1280Q380 1259 363 1243T324 1226Q301 1226 285 1242T268 1280Q268 1303 284 1319T324 1336Q345 1336 362 1320T380 1280ZM708 1280Q708 1259 691 1243T652 1226Q629 1226 613 1242T596 1280Q596 1303 612 1319T652 1336Q673
1336 690 1320T708 1280Z" />
<glyph unicode="&#xe5;" glyph-name="aring" horiz-adv-x="938" d="M784 0Q770 0 770 16L764 175Q722 131 680 96T591 36T490 -2T370 -16Q326 -16 282 -3T201 40T143 116T120 230Q120 296 158 348T276 438T477 496T764 522V648Q764 725 747 786T697 889T614 953T498
976Q446 976 404 965T329 938T272 903T229 868T200 841T184 830Q180 830 174 836L170 840Q242 916 319 956T498 996Q573 996 627 972T718 903T771 794T788 648V0H784ZM370 4Q439 4 495 20T598 63T685 125T764 200V502Q449 492 297 424T144 230Q144 171 163 129T214
59T286 18T370 4ZM340 1290Q340 1321 351 1347T383 1392T430 1423T488 1434Q519 1434 546 1423T593 1393T624 1347T636 1290Q636 1259 625 1233T593 1188T546 1157T488 1146Q457 1146 430 1157T383 1187T352 1233T340 1290ZM362 1290Q362 1263 371 1240T398 1200T438
1174T488 1164Q515 1164 538 1173T578 1200T604 1240T614 1290Q614 1317 605 1340T578 1380T538 1406T488 1416Q461 1416 438 1407T398 1380T372 1340T362 1290Z" />
<glyph unicode="&#xe6;" glyph-name="ae" horiz-adv-x="1590" d="M1152 996Q1222 996 1282 968T1388 885T1458 746T1484 554Q1484 544 1474 544H787Q786 536 786 527T786 510Q786 388 812 295T887 138T1004 41T1156 8Q1229 8 1282 26T1372 66T1427 106T1452 124Q1456
124 1460 120L1464 116Q1449 95 1419 73T1347 31T1257 0T1156 -12Q1004 -12 908 81T781 348Q778 279 759 225T710 131T642 62T563 17T481 -8T404 -16Q347 -16 296 -3T205 42T143 125T120 250Q120 316 158 371T276 468T477 533T764 562V648Q764 725 747 786T697
889T614 953T498 976Q446 976 404 965T329 938T272 903T229 868T200 841T184 830Q180 830 174 836L170 840Q242 916 319 956T498 996Q568 996 621 973T709 906T763 800T782 659Q797 736 829 798T908 904T1016 972T1152 996ZM764 542Q606 537 490 515T297 454T182
365T144 250Q144 184 164 138T218 61T300 18T404 4Q478 4 543 29T658 103T735 218T764 370V542ZM1154 976Q1072 976 1007 946T895 862T821 731T787 562H1464Q1464 665 1440 742T1374 872T1276 950T1154 976Z" />
<glyph unicode="&#xe7;" glyph-name="ccedilla" horiz-adv-x="890" d="M388 -296Q392 -296 401 -303T426 -318T465 -333T524 -340Q584 -340 618 -314T652 -240Q652 -209 637 -189T596 -157T535 -138T460 -126L496 -11Q405 -8 332 27T207 126T128 282T100 490Q100
604 129 697T213 857T347 959T528 996Q617 996 686 968T806 894L800 888Q796 884 792 884Q786 884 770 898T722 930T643 961T528 976Q433 976 358 942T231 845T152 692T124 490Q124 374 151 285T230 134T352 40T512 8Q590 8 644 26T733 66T786 106T810 124Q814
124 818 120L822 116Q807 94 778 72T710 31T621 0T514 -12L483 -109Q526 -116 561 -125T621 -149T660 -185T674 -238Q674 -267 663 -289T630 -326T581 -350T518 -358Q477 -358 437 -344T374 -306L378 -302Q384 -296 388 -296Z" />
<glyph unicode="&#xe8;" glyph-name="egrave" horiz-adv-x="1000" d="M528 996Q605 996 672 969T788 887T866 755T894 574Q894 569 891 567T882 564H126Q124 550 124 537T124 510Q124 388 153 295T235 138T364 41T532 8Q615 8 674 26T773 66T833 106T860 124Q864
124 868 120L872 116Q855 95 822 73T743 31T643 0T532 -12Q431 -12 351 23T216 126T130 290T100 510Q100 618 129 707T213 861T347 960T528 996ZM528 976Q440 976 370 948T248 868T167 743T127 582H872Q872 677 846 750T774 874T664 950T528 976ZM400 1416Q417
1416 425 1412T442 1394L606 1158H592Q581 1158 576 1166L374 1416H400Z" />
<glyph unicode="&#xe9;" glyph-name="eacute" horiz-adv-x="1000" d="M528 996Q605 996 672 969T788 887T866 755T894 574Q894 569 891 567T882 564H126Q124 550 124 537T124 510Q124 388 153 295T235 138T364 41T532 8Q615 8 674 26T773 66T833 106T860 124Q864
124 868 120L872 116Q855 95 822 73T743 31T643 0T532 -12Q431 -12 351 23T216 126T130 290T100 510Q100 618 129 707T213 861T347 960T528 996ZM528 976Q440 976 370 948T248 868T167 743T127 582H872Q872 677 846 750T774 874T664 950T528 976ZM694 1416L492
1166Q485 1158 476 1158H462L626 1394Q635 1408 643 1412T668 1416H694Z" />
<glyph unicode="&#xea;" glyph-name="ecircumflex" horiz-adv-x="1000" d="M528 996Q605 996 672 969T788 887T866 755T894 574Q894 569 891 567T882 564H126Q124 550 124 537T124 510Q124 388 153 295T235 138T364 41T532 8Q615 8 674 26T773 66T833 106T860
124Q864 124 868 120L872 116Q855 95 822 73T743 31T643 0T532 -12Q431 -12 351 23T216 126T130 290T100 510Q100 618 129 707T213 861T347 960T528 996ZM528 976Q440 976 370 948T248 868T167 743T127 582H872Q872 677 846 750T774 874T664 950T528 976ZM746 1170H728Q720
1170 712 1178L532 1374L526 1380L520 1374L340 1178Q337 1175 333 1173T324 1170H306L518 1400H534L746 1170Z" />
<glyph unicode="&#xeb;" glyph-name="edieresis" horiz-adv-x="1000" d="M528 996Q605 996 672 969T788 887T866 755T894 574Q894 569 891 567T882 564H126Q124 550 124 537T124 510Q124 388 153 295T235 138T364 41T532 8Q615 8 674 26T773 66T833 106T860 124Q864
124 868 120L872 116Q855 95 822 73T743 31T643 0T532 -12Q431 -12 351 23T216 126T130 290T100 510Q100 618 129 707T213 861T347 960T528 996ZM528 976Q440 976 370 948T248 868T167 743T127 582H872Q872 677 846 750T774 874T664 950T528 976ZM418 1280Q418
1259 401 1243T362 1226Q339 1226 323 1242T306 1280Q306 1303 322 1319T362 1336Q383 1336 400 1320T418 1280ZM746 1280Q746 1259 729 1243T690 1226Q667 1226 651 1242T634 1280Q634 1303 650 1319T690 1336Q711 1336 728 1320T746 1280Z" />
<glyph unicode="&#xec;" glyph-name="igrave" horiz-adv-x="444" d="M234 980V0H210V980H234ZM353 1416Q370 1416 378 1412T395 1394L559 1158H545Q534 1158 529 1166L327 1416H353Z" />
<glyph unicode="&#xed;" glyph-name="iacute" horiz-adv-x="444" d="M234 980V0H210V980H234ZM647 1416L445 1166Q438 1158 429 1158H415L579 1394Q588 1408 596 1412T621 1416H647Z" />
<glyph unicode="&#xee;" glyph-name="icircumflex" horiz-adv-x="444" d="M234 980V0H210V980H234ZM699 1170H681Q673 1170 665 1178L485 1374L479 1380L473 1374L293 1178Q290 1175 286 1173T277 1170H259L471 1400H487L699 1170Z" />
<glyph unicode="&#xef;" glyph-name="idieresis" horiz-adv-x="444" d="M234 980V0H210V980H234ZM371 1280Q371 1259 354 1243T315 1226Q292 1226 276 1242T259 1280Q259 1303 275 1319T315 1336Q336 1336 353 1320T371 1280ZM699 1280Q699 1259 682 1243T643
1226Q620 1226 604 1242T587 1280Q587 1303 603 1319T643 1336Q664 1336 681 1320T699 1280Z" />
<glyph unicode="&#xf0;" glyph-name="eth" horiz-adv-x="1042" d="M485 1074Q480 1077 480 1084Q480 1088 484 1092L621 1237Q549 1282 470 1310T308 1352Q296 1354 296 1360V1365Q296 1367 297 1368L298 1372Q384 1358 469 1330T633 1250L770 1398L774 1394Q777
1391 777 1385Q777 1380 771 1373L649 1239Q713 1195 767 1136T861 997T923 817T946 594Q946 460 920 349T841 159T707 35T514 -10Q429 -10 354 22T223 113T133 256T100 446Q100 544 127 630T209 779T342 879T524 916Q579 916 639 899T754 846T856 751T928 608Q926
724 904 819T844 990T752 1125T636 1226L490 1070L485 1074ZM514 10Q615 10 690 51T817 164T895 338T925 559Q911 617 880 676T799 785T681 865T524 896Q425 896 350 862T225 767T150 624T124 446Q124 343 155 262T241 125T365 40T514 10Z" />
<glyph unicode="&#xf1;" glyph-name="ntilde" horiz-adv-x="1056" d="M176 0V980H182Q196 980 196 964L199 775Q233 825 275 866T367 936T470 980T582 996Q745 996 825 899T906 628V0H882V628Q882 710 864 774T809 884T715 952T582 976Q467 976 370 915T200 745V0H176ZM654
1242Q704 1242 728 1275T754 1356H770Q770 1329 763 1305T742 1262T706 1233T654 1222Q622 1222 594 1240T539 1280T486 1320T430 1338Q406 1338 388 1329T357 1305T338 1268T330 1224H312Q312 1251 319 1275T342 1318T379 1347T430 1358Q463 1358 491 1340T545
1300T598 1260T654 1242Z" />
<glyph unicode="&#xf2;" glyph-name="ograve" horiz-adv-x="1056" d="M528 996Q631 996 711 960T845 857T928 698T956 490Q956 376 928 284T846 125T711 24T528 -12Q424 -12 345 23T211 125T128 283T100 490Q100 604 128 697T210 857T344 959T528 996ZM528 8Q628
8 704 43T830 141T906 293T932 490Q932 598 907 687T831 841T704 940T528 976Q427 976 352 941T226 841T150 688T124 490Q124 382 149 293T225 141T351 43T528 8ZM404 1416Q421 1416 429 1412T446 1394L610 1158H596Q585 1158 580 1166L378 1416H404Z" />
<glyph unicode="&#xf3;" glyph-name="oacute" horiz-adv-x="1056" d="M528 996Q631 996 711 960T845 857T928 698T956 490Q956 376 928 284T846 125T711 24T528 -12Q424 -12 345 23T211 125T128 283T100 490Q100 604 128 697T210 857T344 959T528 996ZM528 8Q628
8 704 43T830 141T906 293T932 490Q932 598 907 687T831 841T704 940T528 976Q427 976 352 941T226 841T150 688T124 490Q124 382 149 293T225 141T351 43T528 8ZM698 1416L496 1166Q489 1158 480 1158H466L630 1394Q639 1408 647 1412T672 1416H698Z" />
<glyph unicode="&#xf4;" glyph-name="ocircumflex" horiz-adv-x="1056" d="M528 996Q631 996 711 960T845 857T928 698T956 490Q956 376 928 284T846 125T711 24T528 -12Q424 -12 345 23T211 125T128 283T100 490Q100 604 128 697T210 857T344 959T528 996ZM528
8Q628 8 704 43T830 141T906 293T932 490Q932 598 907 687T831 841T704 940T528 976Q427 976 352 941T226 841T150 688T124 490Q124 382 149 293T225 141T351 43T528 8ZM750 1170H732Q724 1170 716 1178L536 1374L530 1380L524 1374L344 1178Q341 1175 337 1173T328
1170H310L522 1400H538L750 1170Z" />
<glyph unicode="&#xf5;" glyph-name="otilde" horiz-adv-x="1056" d="M528 996Q631 996 711 960T845 857T928 698T956 490Q956 376 928 284T846 125T711 24T528 -12Q424 -12 345 23T211 125T128 283T100 490Q100 604 128 697T210 857T344 959T528 996ZM528 8Q628
8 704 43T830 141T906 293T932 490Q932 598 907 687T831 841T704 940T528 976Q427 976 352 941T226 841T150 688T124 490Q124 382 149 293T225 141T351 43T528 8ZM648 1242Q698 1242 722 1275T748 1356H764Q764 1329 757 1305T736 1262T700 1233T648 1222Q616 1222
588 1240T533 1280T480 1320T424 1338Q400 1338 382 1329T351 1305T332 1268T324 1224H306Q306 1251 313 1275T336 1318T373 1347T424 1358Q457 1358 485 1340T539 1300T592 1260T648 1242Z" />
<glyph unicode="&#xf6;" glyph-name="odieresis" horiz-adv-x="1056" d="M528 996Q631 996 711 960T845 857T928 698T956 490Q956 376 928 284T846 125T711 24T528 -12Q424 -12 345 23T211 125T128 283T100 490Q100 604 128 697T210 857T344 959T528 996ZM528
8Q628 8 704 43T830 141T906 293T932 490Q932 598 907 687T831 841T704 940T528 976Q427 976 352 941T226 841T150 688T124 490Q124 382 149 293T225 141T351 43T528 8ZM422 1280Q422 1259 405 1243T366 1226Q343 1226 327 1242T310 1280Q310 1303 326 1319T366
1336Q387 1336 404 1320T422 1280ZM750 1280Q750 1259 733 1243T694 1226Q671 1226 655 1242T638 1280Q638 1303 654 1319T694 1336Q715 1336 732 1320T750 1280Z" />
<glyph unicode="&#xf7;" glyph-name="divide" horiz-adv-x="1160" d="M118 680H1040V660H118V680ZM514 1024Q514 1051 532 1070T578 1090Q605 1090 624 1071T644 1024Q644 997 625 979T578 960Q551 960 533 978T514 1024ZM514 312Q514 339 532 358T578 378Q605
378 624 359T644 312Q644 285 625 267T578 248Q551 248 533 266T514 312Z" />
<glyph unicode="&#xf8;" glyph-name="oslash" horiz-adv-x="1056" d="M840 863Q897 796 926 702T956 490Q956 376 928 284T846 125T711 24T528 -12Q361 -12 254 80L148 -62Q139 -74 126 -74H112L238 95Q170 161 135 261T100 490Q100 604 128 697T210 857T344 959T528
996Q623 996 697 966T825 879L930 1020Q935 1026 938 1029T950 1032H966L840 863ZM124 490Q124 368 156 272T251 112L812 862Q761 916 691 946T528 976Q427 976 352 941T226 841T150 688T124 490ZM528 8Q628 8 704 43T830 141T906 293T932 490Q932 600 906 690T826
845L267 97Q316 53 381 31T528 8Z" />
<glyph unicode="&#xf9;" glyph-name="ugrave" horiz-adv-x="1056" d="M174 980V352Q174 270 192 206T247 96T341 28T474 4Q589 4 685 65T856 234V980H880V0H874Q860 0 860 16L856 204Q821 154 779 113T688 44T585 0T474 -16Q310 -16 230 81T150 352V980H174ZM396
1416Q413 1416 421 1412T438 1394L602 1158H588Q577 1158 572 1166L370 1416H396Z" />
<glyph unicode="&#xfa;" glyph-name="uacute" horiz-adv-x="1056" d="M174 980V352Q174 270 192 206T247 96T341 28T474 4Q589 4 685 65T856 234V980H880V0H874Q860 0 860 16L856 204Q821 154 779 113T688 44T585 0T474 -16Q310 -16 230 81T150 352V980H174ZM690
1416L488 1166Q481 1158 472 1158H458L622 1394Q631 1408 639 1412T664 1416H690Z" />
<glyph unicode="&#xfb;" glyph-name="ucircumflex" horiz-adv-x="1056" d="M174 980V352Q174 270 192 206T247 96T341 28T474 4Q589 4 685 65T856 234V980H880V0H874Q860 0 860 16L856 204Q821 154 779 113T688 44T585 0T474 -16Q310 -16 230 81T150 352V980H174ZM742
1170H724Q716 1170 708 1178L528 1374L522 1380L516 1374L336 1178Q333 1175 329 1173T320 1170H302L514 1400H530L742 1170Z" />
<glyph unicode="&#xfc;" glyph-name="udieresis" horiz-adv-x="1056" d="M174 980V352Q174 270 192 206T247 96T341 28T474 4Q589 4 685 65T856 234V980H880V0H874Q860 0 860 16L856 204Q821 154 779 113T688 44T585 0T474 -16Q310 -16 230 81T150 352V980H174ZM414
1280Q414 1259 397 1243T358 1226Q335 1226 319 1242T302 1280Q302 1303 318 1319T358 1336Q379 1336 396 1320T414 1280ZM742 1280Q742 1259 725 1243T686 1226Q663 1226 647 1242T630 1280Q630 1303 646 1319T686 1336Q707 1336 724 1320T742 1280Z" />
<glyph unicode="&#xfd;" glyph-name="yacute" horiz-adv-x="930" d="M324 -338Q321 -346 315 -353T300 -360H286L454 17L30 980H44Q52 980 57 976T64 966L454 76Q458 67 461 58T467 39Q469 49 472 58T480 76L870 966Q877 980 888 980H902L324 -338ZM662 1416L460
1166Q453 1158 444 1158H430L594 1394Q603 1408 611 1412T636 1416H662Z" />
<glyph unicode="&#xfe;" glyph-name="thorn" horiz-adv-x="1042" d="M176 -360V1440H200V778Q266 878 359 937T564 996Q754 996 855 874T956 496Q956 389 929 297T847 136T713 28T526 -12Q310 -12 200 163V-360H176ZM564 976Q455 976 362 915T200 746V195Q264
92 343 50T526 8Q629 8 705 45T831 149T907 304T932 496Q932 740 839 858T564 976Z" />
<glyph unicode="&#xff;" glyph-name="ydieresis" horiz-adv-x="930" d="M324 -338Q321 -346 315 -353T300 -360H286L454 17L30 980H44Q52 980 57 976T64 966L454 76Q458 67 461 58T467 39Q469 49 472 58T480 76L870 966Q877 980 888 980H902L324 -338ZM386 1280Q386
1259 369 1243T330 1226Q307 1226 291 1242T274 1280Q274 1303 290 1319T330 1336Q351 1336 368 1320T386 1280ZM714 1280Q714 1259 697 1243T658 1226Q635 1226 619 1242T602 1280Q602 1303 618 1319T658 1336Q679 1336 696 1320T714 1280Z" />
<glyph unicode="&#x2013;" glyph-name="endash" horiz-adv-x="1056" d="M140 578H916V558H140V578Z" />
<glyph unicode="&#x2014;" glyph-name="emdash" horiz-adv-x="1548" d="M140 578H1408V558H140V578Z" />
<glyph unicode="&#x2018;" glyph-name="quoteleft" horiz-adv-x="370" d="M133 1096Q117 1125 111 1153T104 1211Q104 1245 112 1278T136 1342T171 1401T213 1454L217 1450Q219 1448 219 1445Q219 1444 217 1440Q173 1380 150 1329T127 1228Q127 1196 134 1174T155
1124Q159 1116 159 1114Q159 1109 153 1106L133 1096Z" />
<glyph unicode="&#x2019;" glyph-name="quoteright" horiz-adv-x="370" d="M206 1450Q222 1421 228 1393T235 1335Q235 1301 227 1268T203 1204T168 1145T126 1092L122 1096Q120 1098 120 1101Q120 1102 122 1106Q166 1166 189 1217T212 1318Q212 1350 205 1372T184
1422Q180 1430 180 1432Q180 1437 186 1440L206 1450Z" />
<glyph unicode="&#x201a;" glyph-name="quotesinglbase" horiz-adv-x="370" d="M206 120Q222 91 228 63T235 5Q235 -29 227 -62T203 -126T168 -185T126 -238L122 -234Q120 -232 120 -229Q120 -228 122 -224Q166 -164 189 -113T212 -12Q212 20 205 42T184 92Q180
100 180 102Q180 107 186 110L206 120Z" />
<glyph unicode="&#x201c;" glyph-name="quotedblleft" horiz-adv-x="610" d="M133 1096Q117 1125 111 1153T104 1211Q104 1245 112 1278T136 1342T171 1401T213 1454L217 1450Q219 1448 219 1445Q219 1444 217 1440Q173 1380 150 1329T127 1228Q127 1196 134 1174T155
1124Q159 1116 159 1114Q159 1109 153 1106L133 1096ZM373 1096Q357 1125 351 1153T344 1211Q344 1245 352 1278T376 1342T411 1401T453 1454L457 1450Q459 1448 459 1445Q459 1444 457 1440Q413 1380 390 1329T367 1228Q367 1196 374 1174T395 1124Q399 1116 399
1114Q399 1109 393 1106L373 1096Z" />
<glyph unicode="&#x201d;" glyph-name="quotedblright" horiz-adv-x="610" d="M446 1450Q462 1421 468 1393T475 1335Q475 1301 467 1268T443 1204T408 1145T366 1092L362 1096Q360 1098 360 1101Q360 1102 362 1106Q406 1166 429 1217T452 1318Q452 1350 445
1372T424 1422Q420 1430 420 1432Q420 1437 426 1440L446 1450ZM206 1450Q222 1421 228 1393T235 1335Q235 1301 227 1268T203 1204T168 1145T126 1092L122 1096Q120 1098 120 1101Q120 1102 122 1106Q166 1166 189 1217T212 1318Q212 1350 205 1372T184 1422Q180
1430 180 1432Q180 1437 186 1440L206 1450Z" />
<glyph unicode="&#x201e;" glyph-name="quotedblbase" horiz-adv-x="610" d="M446 120Q462 91 468 63T475 5Q475 -29 467 -62T443 -126T408 -185T366 -238L362 -234Q360 -232 360 -229Q360 -228 362 -224Q406 -164 429 -113T452 -12Q452 20 445 42T424 92Q420
100 420 102Q420 107 426 110L446 120ZM206 120Q222 91 228 63T235 5Q235 -29 227 -62T203 -126T168 -185T126 -238L122 -234Q120 -232 120 -229Q120 -228 122 -224Q166 -164 189 -113T212 -12Q212 20 205 42T184 92Q180 100 180 102Q180 107 186 110L206 120Z"
/>
<glyph unicode="&#x2022;" glyph-name="bullet" horiz-adv-x="1160" d="M354 598Q354 645 372 686T420 759T491 808T578 826Q625 826 666 808T739 759T788 687T806 598Q806 552 788 512T739 441T667 392T578 374Q532 374 492 392T421 440T372 511T354 598Z" />
<glyph unicode="&#x2039;" glyph-name="guilsinglleft" horiz-adv-x="608" d="M170 508V512L404 882L410 878Q416 873 416 866Q416 861 412 854L208 532Q194 512 190 510Q196 506 208 488L412 166Q416 159 416 154Q416 146 410 142L404 138L170 508Z" />
<glyph unicode="&#x203a;" glyph-name="guilsinglright" horiz-adv-x="608" d="M200 138L194 142Q188 146 188 154Q188 159 192 166L396 488Q408 506 414 510Q410 512 396 532L192 854Q188 861 188 866Q188 873 194 878L200 882L434 512V508L200 138Z" />
</font>
</defs>
</svg>
