<?xml version="1.0" standalone="no"?>
<!DOCTYPE svg PUBLIC "-//W3C//DTD SVG 1.1//EN" "http://www.w3.org/Graphics/SVG/1.1/DTD/svg11.dtd">
<svg xmlns="http://www.w3.org/2000/svg">
<defs >
<font id="Lato" horiz-adv-x="1009" ><font-face
    font-family="Lato Black"
    units-per-em="2000"
    panose-1="2 15 10 2 2 2 4 3 2 3"
    ascent="1974"
    descent="-426"
    alphabetic="0" />
<glyph unicode=" " glyph-name="space" horiz-adv-x="386" />
<glyph unicode="!" glyph-name="exclam" horiz-adv-x="698" d="M610 1457L540 883Q529 792 507 702T456 516H254Q252 554 251 591T249 665Q249 720 252 774T262 883L332 1457H610ZM150 157Q150 193 163 224T200 278T256 314T326 328Q363 328 395 315T451 278T488
224T502 157Q502 121 489 90T451 35T395 -1T326 -14Q288 -14 256 -1T201 35T164 89T150 157Z" />
<glyph unicode="&quot;" glyph-name="quotedbl" horiz-adv-x="828" d="M476 1455L440 1169L394 1011Q379 959 353 932T276 904Q232 904 212 931T188 1011L180 1169L216 1455H476ZM852 1455L816 1169L770 1011Q755 959 729 932T652 904Q608 904 588 931T564 1011L556
1169L592 1455H852Z" />
<glyph unicode="#" glyph-name="numbersign" horiz-adv-x="1160" d="M837 397L718 0H578Q545 0 525 23T505 83Q505 91 506 100T510 119L593 397H420L334 104Q326 76 311 56T276 24T234 6T188 0H54L175 397H82Q49 397 31 411T12 458Q12 483 22 514L50 606H229L302
851H100L138 972Q152 1017 184 1037T282 1058H356L446 1359Q460 1405 498 1430T584 1455H722L601 1058H773L894 1455H1028Q1066 1455 1089 1435T1112 1383Q1112 1369 1108 1357L1019 1058H1216L1176 938Q1161 893 1129 872T1034 851H964L891 606H1006Q1039 606
1057 592T1076 545Q1076 520 1066 489L1038 397H837ZM473 606H647L720 851H548L473 606Z" />
<glyph unicode="$" glyph-name="dollar" horiz-adv-x="1160" d="M375 -6Q319 3 266 20T164 60T75 113T2 176L112 309Q126 326 146 337T190 348Q214 348 237 335T287 304T349 266T428 235L513 627Q449 645 387 670T274 735T193 835T162 986Q162 1076 199 1160T305
1311T474 1420T697 1468L722 1581Q728 1609 752 1630T810 1652H920L877 1456Q983 1436 1054 1393T1174 1297L1088 1190Q1068 1165 1050 1155T1008 1144Q993 1144 974 1151T932 1170T882 1194T824 1215L744 847Q808 827 872 802T986 739T1068 644T1100 506Q1100
406 1063 316T955 155T784 41T556 -13L528 -144Q523 -170 498 -191T440 -213H330L375 -6ZM808 436Q808 489 774 520T685 574L609 228Q709 243 758 295T808 436ZM450 1051Q450 997 484 964T574 906L643 1222Q590 1215 553 1199T493 1161T460 1110T450 1051Z" />
<glyph unicode="%" glyph-name="percent" horiz-adv-x="1512" d="M772 1155Q772 1062 740 986T655 856T535 773T398 743Q334 743 282 765T193 829T136 927T116 1053Q116 1146 145 1222T224 1354T342 1439T488 1469Q552 1469 604 1447T694 1383T752 1283T772 1155ZM542
1153Q542 1225 521 1254T464 1284Q437 1284 415 1272T378 1232T355 1160T346 1053Q346 984 366 957T422 930Q448 930 470 941T508 978T533 1047T542 1153ZM1222 1411Q1239 1427 1261 1441T1322 1455H1540L350 42Q333 25 311 13T256 0H34L1222 1411ZM1454 394Q1454
301 1422 225T1337 95T1217 12T1080 -18Q1016 -18 964 4T875 68T818 166T798 291Q798 385 827 462T906 594T1024 679T1170 709Q1234 709 1286 686T1376 622T1434 523T1454 394ZM1224 392Q1224 465 1203 493T1146 521Q1119 521 1097 509T1060 470T1037 398T1028
291Q1028 223 1048 196T1104 168Q1130 168 1152 179T1190 216T1215 286T1224 392Z" />
<glyph unicode="&amp;" glyph-name="ampersand" horiz-adv-x="1334" d="M732 1471Q822 1471 889 1444T1000 1372T1067 1265T1090 1137L910 1102Q893 1099 881 1099Q858 1099 845 1109T824 1145Q790 1251 704 1251Q670 1251 644 1236T599 1194T572 1133T562 1059Q562
1019 575 975T622 880L894 521Q949 631 973 758Q978 785 992 802T1036 819H1248Q1229 672 1178 545T1051 315L1290 0H1030Q994 0 969 4T923 19T887 44T852 83L834 106Q746 47 647 16T442 -16Q341 -16 263 10T133 86T53 205T26 361Q26 437 49 503T114 626T212 728T335
807Q307 868 296 927T284 1041Q284 1128 315 1206T404 1343T545 1436T732 1471ZM334 399Q334 358 343 324T372 266T426 228T506 214Q558 214 608 232T704 284L443 641Q381 588 358 527T334 399Z" />
<glyph unicode="&apos;" glyph-name="quotesingle" horiz-adv-x="454" d="M476 1455L440 1169L394 1011Q379 959 353 932T276 904Q232 904 212 931T188 1011L180 1169L216 1455H476Z" />
<glyph unicode="(" glyph-name="parenleft" horiz-adv-x="552" d="M328 427Q328 361 332 288T346 140T369 -6T404 -140Q408 -152 410 -162T413 -182Q413 -209 398 -225T362 -253L220 -330Q180 -246 152 -154T105 34T77 224T68 406Q68 562 88 709T155 1001T274
1288T454 1582L578 1506Q592 1496 602 1484T613 1452Q613 1440 607 1426T590 1392Q533 1288 485 1176T402 943T348 693T328 427Z" />
<glyph unicode=")" glyph-name="parenright" horiz-adv-x="552" d="M258 825Q258 891 254 964T240 1112T217 1258T182 1392Q178 1404 176 1414T173 1434Q173 1461 188 1477T224 1505L366 1582Q406 1498 434 1406T481 1218T509 1028T518 846Q518 690 498 543T431
251T312 -36T132 -330L8 -254Q-6 -244 -16 -232T-27 -200Q-27 -188 -21 -174T-4 -140Q53 -37 101 75T184 308T238 558T258 825Z" />
<glyph unicode="*" glyph-name="asterisk" horiz-adv-x="736" d="M336 819L358 994Q363 1036 378 1071Q364 1057 348 1046T312 1025L170 938L116 1053L258 1140Q278 1151 297 1159T337 1171Q299 1177 266 1201L144 1290L228 1406L350 1316Q365 1306 379 1295T404
1271Q400 1288 400 1313Q400 1321 400 1329T402 1346L424 1522H564L542 1347Q539 1327 535 1303T521 1262Q535 1276 551 1291T588 1316L730 1404L784 1288L642 1201Q622 1190 602 1183T562 1171Q581 1167 599 1160T634 1140L754 1051L672 938L550 1025Q534 1035
521 1046T496 1070Q498 1060 499 1050T500 1029Q500 1021 500 1013T498 996L476 819H336Z" />
<glyph unicode="+" glyph-name="plus" horiz-adv-x="1160" d="M784 1177L735 779H1110L1082 565H709L660 165H416L466 565H94L122 779H492L542 1177H784Z" />
<glyph unicode="," glyph-name="comma" horiz-adv-x="472" d="M30 176Q30 208 42 235T76 283T129 316T198 328Q243 328 276 313T331 271T363 210T374 137Q374 87 358 31T311 -83T232 -195T124 -295L70 -247Q59 -236 54 -227T48 -205Q48 -189 65 -169T105 -124T150
-67T182 5Q148 8 120 22T72 58T41 111T30 176Z" />
<glyph unicode="-" glyph-name="hyphen" horiz-adv-x="686" d="M122 728H624L592 486H92L122 728Z" />
<glyph unicode="." glyph-name="period" horiz-adv-x="472" d="M24 157Q24 193 37 224T74 278T130 314T200 328Q237 328 269 315T325 278T362 224T376 157Q376 121 363 90T325 35T269 -1T200 -14Q162 -14 130 -1T75 35T38 89T24 157Z" />
<glyph unicode="/" glyph-name="slash" horiz-adv-x="750" d="M204 7Q192 -20 173 -40T130 -73T83 -94T36 -101H-92L590 1357Q613 1407 657 1433T754 1459H880L204 7Z" />
<glyph unicode="0" glyph-name="zero" horiz-adv-x="1160" d="M696 1471Q797 1471 880 1434T1022 1323T1113 1138T1146 878Q1146 651 1097 483T963 204T761 39T512 -16Q411 -16 328 21T186 132T95 318T62 577Q62 804 111 972T245 1251T446 1416T696 1471ZM552
224Q613 224 665 264T754 384T813 587T834 873Q834 979 819 1048T778 1158T721 1215T656 1232Q594 1232 543 1192T454 1071T395 868T374 583Q374 477 389 408T430 298T487 241T552 224Z" />
<glyph unicode="1" glyph-name="one" horiz-adv-x="1160" d="M222 217H504L598 1001L619 1091L422 939Q405 926 389 922T358 918Q332 918 314 928T288 951L210 1077L708 1458H956L803 217H1048L1020 0H196L222 217Z" />
<glyph unicode="2" glyph-name="two" horiz-adv-x="1160" d="M714 1471Q811 1471 888 1444T1019 1367T1101 1249T1130 1100Q1130 1010 1104 936T1031 794T923 665T788 537L458 236Q514 252 568 261T668 270H958Q1003 270 1027 247T1051 186Q1051 184 1051 180T1048
158T1042 103T1028 0H10L22 96Q25 123 41 155T88 215L564 641Q634 704 683 758T762 863T806 964T820 1071Q820 1144 781 1186T664 1228Q628 1228 597 1218T539 1189T493 1145T460 1091Q440 1048 413 1029T344 1010Q322 1010 302 1014L148 1041Q178 1149 233 1229T362
1364T525 1444T714 1471Z" />
<glyph unicode="3" glyph-name="three" horiz-adv-x="1160" d="M750 1471Q849 1471 925 1444T1052 1370T1129 1262T1156 1131Q1156 1052 1140 993T1091 892T1010 822T897 776Q1000 734 1051 662T1102 486Q1102 403 1080 334T1020 209T928 111T811 41T678 -2T534
-16Q430 -16 351 6T215 76T121 197T62 372L202 426Q221 434 238 437T273 440Q304 440 326 428T358 393Q391 306 438 267T562 227Q620 227 665 247T741 302T788 383T804 481Q804 517 793 546T751 597T663 629T516 641L544 846Q635 847 695 862T792 906T843 976T858
1072Q858 1147 819 1187T702 1228Q628 1228 575 1189T496 1091Q476 1048 449 1029T381 1010Q372 1010 362 1011T340 1014L186 1041Q215 1149 270 1229T398 1364T561 1444T750 1471Z" />
<glyph unicode="4" glyph-name="four" horiz-adv-x="1160" d="M988 561H1138L1114 394Q1111 372 1094 356T1048 339H961L920 0H650L691 339H107Q78 339 54 357T27 408L16 547L804 1457H1098L988 561ZM766 961Q770 991 776 1025T793 1097L339 561H718L766 961Z" />
<glyph unicode="5" glyph-name="five" horiz-adv-x="1160" d="M1100 1333Q1096 1303 1084 1278T1048 1234T989 1205T906 1195H550L475 938Q516 946 554 949T627 952Q734 952 814 922T948 840T1029 716T1056 563Q1056 436 1008 330T876 147T679 27T434 -16Q363
-16 301 -2T186 38T90 96T12 166L120 291Q137 311 158 320T200 329Q229 329 253 313T308 278T379 242T482 226Q553 226 604 251T689 317T738 412T754 525Q754 613 700 664T537 716Q495 716 446 708T340 682L162 732L376 1457H1116L1100 1333Z" />
<glyph unicode="6" glyph-name="six" horiz-adv-x="1160" d="M738 919Q811 919 879 896T1001 825T1086 707T1118 542Q1118 428 1074 327T950 149T762 29T526 -16Q416 -16 330 17T186 110T97 252T66 433Q66 568 123 689T292 939L678 1386Q703 1415 748 1435T846
1455H1112L575 891Q612 905 652 912T738 919ZM350 423Q350 377 362 340T400 276T462 235T550 220Q604 220 652 240T737 298T794 385T816 494Q816 543 801 581T759 647T693 688T606 703Q552 703 505 683T424 627T370 539T350 423Z" />
<glyph unicode="7" glyph-name="seven" horiz-adv-x="1160" d="M1224 1457L1210 1342Q1205 1302 1196 1268T1172 1212L486 66Q469 38 437 19T372 0H120L776 1059Q801 1099 828 1132T888 1195H238Q212 1195 195 1213T178 1254Q178 1265 180 1287T187 1338T195 1397T204
1457H1224Z" />
<glyph unicode="8" glyph-name="eight" horiz-adv-x="1160" d="M518 -16Q411 -16 325 11T178 89T83 209T50 366Q50 435 66 496T119 607T211 696T345 760Q262 801 221 869T180 1028Q180 1123 220 1204T330 1344T495 1437T700 1471Q795 1471 873 1444T1007 1369T1093
1256T1124 1116Q1124 988 1064 897T882 756Q993 714 1042 639T1092 463Q1092 354 1049 266T930 115T748 18T518 -16ZM546 210Q607 210 651 229T725 281T769 359T784 458Q784 498 774 531T742 588T684 625T598 638Q532 638 487 620T414 568T374 490T362 391Q362
352 372 319T405 262T463 224T546 210ZM626 864Q691 864 731 886T793 943T822 1018T830 1095Q830 1126 822 1154T795 1205T747 1240T674 1253Q620 1253 582 1235T518 1187T482 1116T470 1032Q470 1000 477 970T503 917T551 879T626 864Z" />
<glyph unicode="9" glyph-name="nine" horiz-adv-x="1160" d="M526 570Q460 570 397 592T283 660T203 773T172 933Q172 1043 215 1140T334 1311T516 1428T744 1471Q850 1471 933 1440T1072 1352T1158 1219T1188 1048Q1188 968 1173 899T1128 765T1058 639T966
517L594 67Q570 38 528 19T432 0H156L684 554Q700 571 715 587T744 620Q695 595 640 583T526 570ZM904 1044Q904 1090 890 1125T851 1185T789 1223T710 1236Q657 1236 614 1217T541 1162T493 1078T476 973Q476 883 522 836T660 789Q717 789 762 807T838 859T887
940T904 1044Z" />
<glyph unicode=":" glyph-name="colon" horiz-adv-x="472" d="M24 157Q24 193 37 224T74 278T130 314T200 328Q237 328 269 315T325 278T362 224T376 157Q376 121 363 90T325 35T269 -1T200 -14Q162 -14 130 -1T75 35T38 89T24 157ZM120 840Q120 876 133 907T170
961T226 997T296 1011Q333 1011 365 998T421 961T458 907T472 840Q472 804 459 773T421 718T365 682T296 669Q258 669 226 682T171 718T134 772T120 840Z" />
<glyph unicode=";" glyph-name="semicolon" horiz-adv-x="472" d="M24 176Q24 208 36 235T70 283T123 316T192 328Q237 328 270 313T325 271T357 210T368 137Q368 87 352 31T305 -83T226 -195T118 -295L64 -247Q53 -236 48 -227T42 -205Q42 -189 59 -169T99 -124T144
-67T176 5Q142 8 114 22T66 58T35 111T24 176ZM118 840Q118 876 131 907T168 961T224 997T294 1011Q331 1011 363 998T419 961T456 907T470 840Q470 804 457 773T419 718T363 682T294 669Q256 669 224 682T169 718T132 772T118 840Z" />
<glyph unicode="&lt;" glyph-name="less" horiz-adv-x="1067" d="M151 735L1013 1159L986 944Q983 921 969 902T926 868L624 715Q597 701 567 692T503 674Q535 666 562 658T614 635L881 481Q922 458 922 418Q922 410 921 406L893 191L136 614L151 735Z" />
<glyph unicode="=" glyph-name="equal" horiz-adv-x="1160" d="M140 597H1046L1018 383H112L140 597ZM186 960H1090L1064 745H158L186 960Z" />
<glyph unicode="&gt;" glyph-name="greater" horiz-adv-x="1067" d="M961 615L99 191L126 406Q129 429 143 448T186 482L488 635Q515 649 545 658T609 676Q577 684 550 692T498 715L231 869Q190 892 190 932Q190 940 191 944L219 1159L976 736L961 615Z" />
<glyph unicode="?" glyph-name="question" horiz-adv-x="820" d="M138 1322Q177 1353 220 1380T313 1427T417 1459T534 1471Q619 1471 683 1447T789 1383T853 1289T874 1175Q874 1090 853 1032T798 931T724 859T645 799T575 737T530 658L486 516H280V677Q280 729
303 769T362 844T439 908T515 969T574 1037T598 1120Q598 1174 571 1206T478 1238Q431 1238 398 1227T339 1202T295 1177T258 1165Q238 1165 224 1173T202 1201L138 1322ZM184 157Q184 193 197 224T234 278T290 314T360 328Q397 328 429 315T485 278T522 224T536
157Q536 121 523 90T485 35T429 -1T360 -14Q322 -14 290 -1T235 35T198 89T184 157Z" />
<glyph unicode="@" glyph-name="at" horiz-adv-x="1486" d="M1016 182Q988 182 961 188T912 209T872 247T846 303Q783 238 719 211T586 183Q533 183 494 202T428 254T389 332T376 430Q376 491 392 555T439 680T518 793T628 887T769 950T942 973Q984 973 1017 970T1078
961T1131 947T1182 926L1044 548Q1030 509 1024 480T1017 429Q1017 391 1035 376T1082 361Q1121 361 1155 394T1216 485T1257 620T1272 785Q1272 888 1245 967T1165 1101T1036 1184T862 1212Q731 1212 621 1156T432 1002T307 770T262 483Q262 351 297 251T396 82T552
-21T756 -56Q829 -56 889 -49T996 -29T1077 -3T1134 26Q1151 36 1165 39T1192 43Q1218 43 1232 28T1252 -7L1274 -88Q1224 -121 1166 -149T1040 -198T896 -230T734 -242Q576 -242 449 -191T233 -47T95 179T46 473Q46 597 76 713T160 932T292 1120T462 1267T662
1362T886 1396Q1010 1396 1118 1353T1308 1229T1435 1037T1482 785Q1482 660 1446 550T1347 359T1199 230T1016 182ZM670 369Q689 369 707 376T744 400T779 446T812 517L912 791Q891 794 870 794Q822 794 775 767T691 693T631 587T608 461Q608 369 670 369Z" />
<glyph unicode="A" glyph-name="A" horiz-adv-x="1326" d="M1288 0H1036Q994 0 969 19T938 71L893 333H398L290 71Q279 43 247 22T176 0H-80L616 1457H950L1288 0ZM489 555H855L784 971Q775 1023 765 1076T747 1174Q739 1150 726 1120T701 1060T677 1006T660 969L489
555Z" />
<glyph unicode="B" glyph-name="B" horiz-adv-x="1208" d="M44 0L224 1457H724Q851 1457 941 1433T1089 1365T1173 1258T1200 1119Q1200 1059 1185 1004T1136 901T1049 816T921 751Q1039 719 1095 652T1152 481Q1152 380 1114 293T1002 140T825 38T588 0H44ZM446
622L400 245H614Q674 245 715 262T781 311T818 385T830 477Q830 510 822 537T793 582T739 611T656 622H446ZM472 838H628Q683 838 727 849T802 886T851 957T868 1066Q868 1147 826 1180T694 1214H518L472 838Z" />
<glyph unicode="C" glyph-name="C" horiz-adv-x="1182" d="M678 252Q733 252 773 260T843 282T892 310T928 339T958 360T988 369Q1004 369 1014 364T1030 351L1144 214Q1049 101 919 43T622 -16Q484 -16 378 32T198 166T88 367T50 619Q50 744 78 856T157 1063T279
1234T438 1363T625 1444T834 1473Q916 1473 983 1458T1105 1415T1203 1349T1278 1265L1164 1133Q1152 1119 1136 1108T1094 1097Q1077 1097 1063 1105T1035 1124T1002 1150T959 1175T900 1195T818 1203Q726 1203 647 1164T509 1053T417 877T384 645Q384 552 406
479T468 356T561 279T678 252Z" />
<glyph unicode="D" glyph-name="D" horiz-adv-x="1364" d="M1366 822Q1366 703 1339 597T1262 399T1141 234T981 108T788 28T568 0H44L224 1457H748Q891 1457 1005 1409T1200 1275T1323 1074T1366 822ZM1032 814Q1032 903 1012 975T951 1099T851 1178T716 1206H520L404
251H600Q700 251 780 290T916 403T1002 580T1032 814Z" />
<glyph unicode="E" glyph-name="E" horiz-adv-x="1036" d="M1060 1206H521L477 854H890L858 612H447L403 251H946L914 0H44L224 1457H1092L1060 1206Z" />
<glyph unicode="F" glyph-name="F" horiz-adv-x="1024" d="M1060 1206H521L473 822H924L890 571H442L372 0H44L224 1457H1092L1060 1206Z" />
<glyph unicode="G" glyph-name="G" horiz-adv-x="1306" d="M710 235Q770 235 818 245T910 275L938 513H814Q786 513 771 526T756 561L778 749H1264L1188 140Q1132 99 1072 70T947 21T809 -7T654 -16Q519 -16 408 33T217 170T94 376T50 634Q50 755 77 864T156 1067T278
1235T437 1363T626 1444T838 1473Q931 1473 1006 1456T1142 1411T1249 1345T1332 1267L1226 1136Q1190 1092 1145 1092Q1118 1092 1090 1110Q1054 1133 1023 1150T961 1179T894 1197T814 1203Q719 1203 640 1163T504 1049T416 872T384 645Q384 549 407 473T474
344T577 263T710 235Z" />
<glyph unicode="H" glyph-name="H" horiz-adv-x="1392" d="M1226 0H898L974 620H448L372 0H44L224 1457H552L476 842H1002L1078 1457H1406L1226 0Z" />
<glyph unicode="I" glyph-name="I" horiz-adv-x="592" d="M400 0H72L250 1457H578L400 0Z" />
<glyph unicode="J" glyph-name="J" horiz-adv-x="788" d="M688 523Q673 401 633 302T527 132T370 23T160 -16Q107 -16 57 -10T-48 10L-24 197Q-21 222 -7 238T40 255Q64 255 94 250T160 244Q241 244 293 307T362 515L476 1457H802L688 523Z" />
<glyph unicode="K" glyph-name="K" horiz-adv-x="1320" d="M474 861H522Q557 861 584 872T628 909L974 1392Q1002 1431 1038 1444T1122 1457H1404L946 862Q923 831 898 811T846 777Q880 763 906 740T950 676L1258 0H968Q940 0 921 4T888 15T865 34T850 60L624
572Q611 601 587 612T520 624H445L368 0H44L222 1457H548L474 861Z" />
<glyph unicode="L" glyph-name="L" horiz-adv-x="956" d="M402 260H892L860 0H44L224 1457H550L402 260Z" />
<glyph unicode="M" glyph-name="M" horiz-adv-x="1732" d="M830 640Q851 577 866 511Q882 544 899 576T936 640L1382 1407Q1402 1441 1432 1449T1490 1457H1746L1566 0H1280L1382 848Q1385 875 1391 907T1406 975L968 223Q948 189 916 173T846 156H802Q764 156
736 173T696 223L440 977Q438 943 437 911T432 853L332 0H44L224 1457H472Q493 1457 509 1456T537 1451T559 1436T574 1407L830 640V640Z" />
<glyph unicode="N" glyph-name="N" horiz-adv-x="1392" d="M396 1457Q417 1457 431 1456T457 1449T478 1433T496 1407L1007 507Q1009 542 1013 574T1020 634L1118 1457H1406L1226 0H1056Q1018 0 993 11T950 54L441 953Q439 925 437 899T432 850L332 0H44L224 1457H396V1457Z"
/>
<glyph unicode="O" glyph-name="O" horiz-adv-x="1464" d="M1468 822Q1468 704 1441 596T1363 395T1241 226T1080 97T887 14T668 -16Q524 -16 410 34T215 172T93 378T50 634Q50 752 77 860T155 1062T278 1231T439 1360T632 1443T852 1473Q995 1473 1109 1423T1303
1284T1425 1077T1468 822ZM1134 814Q1134 904 1113 977T1050 1103T948 1184T812 1213Q712 1213 633 1172T499 1055T414 875T384 641Q384 551 405 478T466 353T567 273T704 244Q804 244 883 285T1018 401T1104 581T1134 814Z" />
<glyph unicode="P" glyph-name="P" horiz-adv-x="1180" d="M428 491L368 0H44L222 1457H704Q834 1457 926 1426T1078 1339T1166 1208T1194 1045Q1194 926 1158 825T1046 649T856 533T584 491H428ZM518 1214L459 736H616Q686 736 733 756T810 814T853 904T866 1018Q866
1061 855 1097T819 1159T759 1199T672 1214H518Z" />
<glyph unicode="Q" glyph-name="Q" horiz-adv-x="1464" d="M1468 822Q1468 711 1444 609T1375 418T1266 254T1123 124L1414 -274H1146Q1089 -274 1043 -261T968 -204L827 -1Q750 -16 668 -16Q524 -16 410 34T215 172T93 378T50 634Q50 752 77 860T155 1062T278
1231T439 1360T632 1443T852 1473Q995 1473 1109 1423T1303 1284T1425 1077T1468 822ZM1134 814Q1134 904 1113 977T1050 1103T948 1184T812 1213Q712 1213 633 1172T499 1055T414 875T384 641Q384 551 405 478T466 353T567 273T704 244Q804 244 883 285T1018 401T1104
581T1134 814Z" />
<glyph unicode="R" glyph-name="R" horiz-adv-x="1228" d="M435 544L368 0H44L222 1457H664Q798 1457 892 1429T1047 1350T1134 1232T1162 1083Q1162 1002 1141 930T1078 798T978 691T842 614Q872 597 898 573T940 513L1152 0H858Q817 0 789 16T750 62L592 493Q581
521 563 532T508 544H435ZM518 1214L463 769H582Q652 769 701 790T780 848T824 932T838 1033Q838 1074 826 1107T789 1164T725 1201T634 1214H518Z" />
<glyph unicode="S" glyph-name="S" horiz-adv-x="1000" d="M942 1165Q925 1141 908 1130T866 1119Q843 1119 820 1134T769 1167T703 1200T616 1215Q570 1215 536 1202T478 1166T444 1112T432 1044Q432 1004 454 977T514 930T599 892T695 855T792 809T877 744T937
650T960 518Q960 408 922 311T813 142T641 27T412 -16Q349 -16 286 -2T164 37T55 98T-30 176L86 328Q99 345 120 356T162 367Q190 367 216 348T275 305T349 262T454 242Q545 242 594 291T644 438Q644 483 622 512T563 561T479 596T383 630T287 672T204 736T145
833T122 975Q122 1072 158 1161T263 1320T428 1430T646 1471Q708 1471 766 1458T876 1422T969 1368T1040 1299L942 1165Z" />
<glyph unicode="T" glyph-name="T" horiz-adv-x="1104" d="M1206 1457L1172 1199H802L654 0H330L476 1199H104L136 1457H1206Z" />
<glyph unicode="U" glyph-name="U" horiz-adv-x="1334" d="M640 256Q701 256 751 279T839 346T902 452T936 591L1042 1457H1368L1262 591Q1245 458 1192 347T1053 155T854 29T606 -16Q484 -16 389 21T228 125T128 287T94 494Q94 541 100 591L204 1457H530L424
591Q422 573 421 556T420 521Q420 397 476 327T640 256Z" />
<glyph unicode="V" glyph-name="V" horiz-adv-x="1368" d="M118 1457H380Q422 1457 447 1437T478 1386L630 583Q639 534 651 473T672 348Q693 411 720 471T768 583L1108 1386Q1114 1399 1125 1412T1151 1435T1185 1451T1224 1457H1488L772 0H476L118 1457Z" />
<glyph unicode="W" glyph-name="W" horiz-adv-x="1980" d="M128 1457H384Q426 1457 451 1438T482 1386L584 601Q588 573 590 544T594 490Q596 461 596 434Q611 481 627 522T658 601L956 1386Q967 1413 998 1435T1070 1457H1146Q1188 1457 1214 1438T1246 1386L1358
601Q1363 566 1368 525T1378 438Q1391 483 1404 524T1430 601L1718 1386Q1728 1414 1760 1435T1834 1457H2092L1498 0H1202L1068 920Q1065 942 1061 968T1054 1024Q1043 995 1033 969T1014 920L658 0H364L128 1457Z" />
<glyph unicode="X" glyph-name="X" horiz-adv-x="1324" d="M472 777L156 1457H452Q484 1457 497 1449T520 1420L712 960Q717 970 723 979T736 999L992 1415Q1006 1438 1022 1447T1062 1457H1404L919 793L1270 0H978Q946 0 928 16T902 52L687 587Q683 580 679 574T670
562L348 52Q329 23 304 12T250 0H-76L472 777Z" />
<glyph unicode="Y" glyph-name="Y" horiz-adv-x="1256" d="M799 558L730 0H404L473 555L98 1457H388Q430 1457 453 1438T488 1386L628 945Q642 901 653 860T673 781Q692 819 715 859T764 945L1012 1386Q1027 1413 1056 1435T1126 1457H1396L799 558Z" />
<glyph unicode="Z" glyph-name="Z" horiz-adv-x="1120" d="M1212 1457L1198 1359Q1195 1339 1186 1321T1164 1286L428 251H1044L1012 0H-28L-16 96Q-13 116 -4 134T18 169L755 1206H172L204 1457H1212Z" />
<glyph unicode="[" glyph-name="bracketleft" horiz-adv-x="552" d="M-22 -320L208 1555H628L614 1441Q610 1412 586 1391T528 1370H435L249 -134H346Q376 -134 394 -152T413 -198Q413 -199 413 -202T411 -216T406 -252T398 -320H-22Z" />
<glyph unicode="\" glyph-name="backslash" horiz-adv-x="748" d="M100 1459H226Q279 1459 314 1432T364 1357L688 -101H562Q515 -101 475 -74T420 7L100 1459Z" />
<glyph unicode="]" glyph-name="bracketright" horiz-adv-x="552" d="M-30 -207Q-25 -177 -2 -156T54 -134H149L335 1370H238Q207 1370 188 1388T169 1432Q169 1434 169 1436T170 1441L186 1555H606L374 -320H-46L-30 -207Z" />
<glyph unicode="^" glyph-name="asciicircum" horiz-adv-x="1160" d="M1114 768H886Q859 768 841 781T812 816L688 1053Q671 1085 657 1114T631 1172Q621 1143 608 1114T578 1053L458 816Q447 796 429 782T380 768H140L526 1457H728L1114 768Z" />
<glyph unicode="_" glyph-name="underscore" horiz-adv-x="726" d="M652 -114L628 -300H-98L-74 -114H652Z" />
<glyph unicode="`" glyph-name="grave" horiz-adv-x="612" d="M278 1471Q322 1471 342 1457T374 1413L468 1168H298Q265 1168 246 1177T208 1208L-2 1471H278Z" />
<glyph unicode="a" glyph-name="a" horiz-adv-x="1058" d="M897 0H731Q702 0 683 7T652 28T636 59T631 98V172Q567 84 489 34T317 -16Q261 -16 209 6T117 74T53 190T29 357Q29 498 80 624T224 846T444 997T723 1053Q797 1053 873 1043T1023 1007L897 0ZM441 229Q475
229 507 254T567 324T620 427T661 553L697 840H679Q603 840 541 806T433 714T364 578T339 412Q339 362 347 327T368 271T400 239T441 229Z" />
<glyph unicode="b" glyph-name="b" horiz-adv-x="1100" d="M43 0L225 1497H529L452 874Q521 958 602 1005T775 1053Q839 1053 892 1031T983 960T1043 838T1065 660Q1065 524 1024 402T912 186T751 39T559 -16Q482 -16 424 13T324 91L321 81Q307 39 285 20T213
0H43ZM651 818Q618 818 583 793T514 725T453 623T405 498L375 256Q404 232 440 222T509 212Q563 212 608 248T687 342T738 476T757 629Q757 728 728 773T651 818Z" />
<glyph unicode="c" glyph-name="c" horiz-adv-x="876" d="M855 182Q805 127 759 89T664 28T560 -5T437 -16Q346 -16 273 15T149 103T69 241T41 423Q41 550 82 664T198 864T375 1000T599 1051Q703 1051 777 1016T911 904L811 789Q800 778 786 770T755 761Q735 761
722 769T692 787T653 805T593 814Q547 814 504 788T426 711T372 588T351 422Q351 370 363 332T396 268T445 229T505 216Q553 216 582 229T634 259T675 288T721 302Q736 302 750 295T775 276L855 182V182Z" />
<glyph unicode="d" glyph-name="d" horiz-adv-x="1102" d="M765 0Q736 0 717 7T686 28T670 59T665 98V185Q594 91 508 38T325 -16Q261 -16 208 6T117 77T57 199T35 378Q35 468 54 553T107 714T188 851T291 958T411 1028T541 1053Q605 1053 656 1032T747 975L813
1497H1117L931 0H765ZM449 220Q481 220 515 244T582 310T643 408T691 530L723 782Q694 805 659 815T591 825Q537 825 492 789T413 695T362 561T343 408Q343 309 372 265T449 220Z" />
<glyph unicode="e" glyph-name="e" horiz-adv-x="968" d="M951 782Q951 711 923 652T826 548T639 470T343 420Q345 314 389 265T521 216Q562 216 592 223T644 241T685 264T719 287T754 305T795 312Q810 312 824 305T849 285L929 192Q874 138 822 99T714 34T596
-4T459 -16Q367 -16 290 15T158 104T72 243T41 423Q41 506 59 585T112 733T197 861T309 962T446 1027T605 1051Q688 1051 752 1027T861 965T928 878T951 782ZM587 842Q510 842 452 781T365 612Q462 627 522 643T615 679T659 721T671 770Q671 796 651 819T587 842Z"
/>
<glyph unicode="f" glyph-name="f" horiz-adv-x="664" d="M484 823L391 50L337 -124Q319 -182 282 -214T177 -246H51L180 824L119 838Q93 844 76 859T58 902Q58 909 59 913L75 1035H206L213 1094Q224 1183 262 1255T359 1378T495 1457T663 1485Q698 1485 727 1481T787
1466L759 1310Q754 1284 731 1276T685 1268Q608 1268 563 1227T505 1084L499 1035H709L681 823H484Z" />
<glyph unicode="g" glyph-name="g" horiz-adv-x="1008" d="M901 727Q901 663 884 618T845 533T807 451T789 352Q789 311 802 277T832 206T861 130T875 38Q875 -42 840 -113T739 -238T577 -323T357 -355Q256 -355 176 -334T41 -277T-45 -192T-75 -85Q-75 3 -31
61T84 155T239 205T405 220Q451 220 492 216T569 205Q567 217 567 229T567 256Q567 309 594 377Q555 351 505 336T379 321Q320 321 266 340T171 400T104 500T79 644Q79 721 108 794T196 925T341 1018T543 1053Q602 1053 656 1040T757 999H1055L1041 902Q1032 841
983 825L895 795Q901 762 901 727ZM469 501Q506 501 533 520T579 569T607 638T617 715Q617 780 590 816T507 852Q470 852 443 835T397 788T370 721T361 642Q361 576 388 539T469 501ZM593 14Q593 20 593 26T592 37Q541 45 499 49T421 53Q367 53 329 45T266 24T230
-8T219 -47Q219 -98 256 -124T383 -150Q429 -150 468 -138T534 -105T577 -53T593 14Z" />
<glyph unicode="h" glyph-name="h" horiz-adv-x="1108" d="M43 0L225 1497H535L462 901Q533 979 612 1016T775 1053Q833 1053 882 1032T967 971T1022 871T1042 735Q1042 717 1041 698T1037 659L959 0H649L727 659Q729 675 730 688T731 714Q731 768 712 789T655
810Q624 810 590 792T525 739T466 657T420 550L353 0H43Z" />
<glyph unicode="i" glyph-name="i" horiz-adv-x="540" d="M485 1037L361 0H55L179 1037H485ZM543 1321Q543 1284 527 1252T485 1195T426 1156T357 1141Q322 1141 290 1155T234 1194T194 1251T179 1321Q179 1358 194 1391T234 1449T292 1488T359 1503Q395 1503
428 1489T486 1450T527 1392T543 1321Z" />
<glyph unicode="j" glyph-name="j" horiz-adv-x="534" d="M487 1037L361 -2Q352 -75 325 -139T250 -252T134 -329T-23 -357Q-67 -357 -98 -353T-161 -339L-131 -176Q-127 -155 -114 -145T-67 -135Q-35 -135 -14 -129T22 -108T44 -68T57 -2L183 1037H487ZM533 1321Q533
1284 517 1252T475 1195T416 1156T347 1141Q312 1141 280 1155T224 1194T184 1251T169 1321Q169 1358 184 1391T224 1449T282 1488T349 1503Q385 1503 418 1489T476 1450T517 1392T533 1321Z" />
<glyph unicode="k" glyph-name="k" horiz-adv-x="1074" d="M537 1497L434 658H455Q481 658 497 666T529 695L743 987Q762 1013 785 1025T841 1037H1119L829 668Q809 642 785 622T735 587Q756 570 771 548T799 496L1007 0H737Q704 0 683 11T649 52L505 419Q494
444 482 451T441 459H409L353 0H47L231 1497H537Z" />
<glyph unicode="l" glyph-name="l" horiz-adv-x="520" d="M43 0L225 1497H531L349 0H43Z" />
<glyph unicode="m" glyph-name="m" horiz-adv-x="1594" d="M35 0L161 1037H321Q369 1037 396 1015T423 941V880Q489 968 562 1010T715 1053Q803 1053 861 996T935 830Q1004 945 1086 999T1271 1053Q1329 1053 1376 1033T1457 972T1509 874T1528 740Q1528 721 1527
701T1523 659L1445 0H1139L1217 659Q1219 676 1220 690T1221 717Q1221 768 1205 788T1157 808Q1126 808 1098 792T1044 744T997 668T960 568L893 0H587L665 659Q667 676 668 690T669 717Q669 768 653 788T605 808Q574 808 545 791T491 742T444 665T407 563L339
0H35Z" />
<glyph unicode="n" glyph-name="n" horiz-adv-x="1100" d="M641 0L719 659Q721 675 722 688T723 714Q723 767 705 787T649 808Q615 808 578 787T508 728T446 636T402 515L345 0H35L159 1037H319Q367 1037 394 1015T421 941V858Q496 958 585 1005T769 1053Q827
1053 875 1032T959 971T1014 871T1034 735Q1034 717 1033 698T1029 659L951 0H641Z" />
<glyph unicode="o" glyph-name="o" horiz-adv-x="1034" d="M471 214Q523 214 564 245T633 331T677 458T693 613Q693 726 663 774T563 823Q511 823 470 792T401 706T357 579T341 424Q341 313 371 264T471 214ZM443 -16Q356 -16 281 13T150 97T63 234T31 422Q31
560 76 675T199 875T377 1006T591 1053Q678 1053 753 1024T883 940T971 803T1003 615Q1003 479 958 364T835 164T657 32T443 -16Z" />
<glyph unicode="p" glyph-name="p" horiz-adv-x="1082" d="M-5 -329L161 1037H321Q369 1037 396 1015T423 941V847Q494 943 581 998T767 1053Q831 1053 884 1031T975 960T1035 838T1057 660Q1057 524 1016 402T904 186T743 39T551 -16Q486 -16 435 5T345 61L297
-329H-5ZM643 818Q611 818 576 794T509 727T448 627T400 505L369 255Q398 232 433 222T501 212Q555 212 600 248T679 342T730 476T749 629Q749 728 720 773T643 818Z" />
<glyph unicode="q" glyph-name="q" horiz-adv-x="1058" d="M855 -329H651Q625 -329 608 -321T580 -299T565 -270T560 -238Q560 -228 561 -223L608 142Q547 67 475 26T317 -16Q261 -16 209 6T117 74T53 190T29 357Q29 498 80 624T224 846T444 997T723 1053Q797
1053 873 1043T1023 1007L855 -329ZM441 229Q474 229 506 254T566 323T619 425T660 550L697 840H679Q603 840 541 806T433 714T364 578T339 412Q339 362 347 327T368 271T400 239T441 229Z" />
<glyph unicode="r" glyph-name="r" horiz-adv-x="750" d="M35 0L161 1037H321Q369 1037 396 1015T423 941V823Q483 929 553 986T698 1043Q740 1043 781 1024L725 737Q674 759 628 759Q551 759 492 690T395 466L339 0H35Z" />
<glyph unicode="s" glyph-name="s" horiz-adv-x="790" d="M743 819Q729 801 717 793T685 785Q665 785 646 794T604 814T553 835T487 844Q418 844 389 818T359 749Q359 722 375 703T419 669T480 642T551 614T621 578T683 529T726 460T743 365Q743 287 712 218T623
97T483 15T297 -16Q248 -16 200 -6T110 21T32 61T-25 112L51 226Q65 246 83 257T129 269Q154 269 172 257T211 231T261 205T337 193Q403 193 435 222T467 292Q467 323 451 343T407 377T346 403T276 429T206 461T145 508T102 577T85 676Q85 748 111 816T190 936T321
1021T503 1053Q607 1053 688 1017T823 929L743 819Z" />
<glyph unicode="t" glyph-name="t" horiz-adv-x="730" d="M135 224Q135 231 135 241T136 269T141 318T151 399L204 823H121Q102 823 89 835T76 873Q76 874 78 890T82 925T86 960T88 978L91 1005L248 1037L335 1290Q350 1338 403 1338H571L533 1035H765L739 823H507L457
416Q452 375 450 352T446 316T444 299T443 293Q443 264 456 245T499 225Q515 225 525 228T544 236T559 244T575 248Q589 248 596 242T609 221L677 74Q615 29 544 7T401 -16Q341 -16 293 0T211 48T157 124T135 224Z" />
<glyph unicode="u" glyph-name="u" horiz-adv-x="1098" d="M459 1037L381 379Q379 363 378 350T377 324Q377 271 395 250T451 229Q482 229 516 247T583 299T642 381T688 488L755 1037H1065L939 0H781Q671 0 671 102V168Q596 74 510 29T331 -16Q273 -16 225 5T141
66T86 166T66 303Q66 321 67 340T71 379L149 1037H459Z" />
<glyph unicode="v" glyph-name="v" horiz-adv-x="1032" d="M63 1037H319Q351 1037 370 1022T393 983L461 518Q470 459 476 403T486 289Q504 345 525 401T571 518L753 983Q762 1007 785 1022T835 1037H1081L577 0H315L63 1037Z" />
<glyph unicode="w" glyph-name="w" horiz-adv-x="1510" d="M73 1037H311Q341 1037 362 1022T385 983L415 518Q415 514 415 511T416 503Q419 455 421 410T424 320Q442 368 462 417T503 518L677 984Q685 1007 708 1022T759 1038H893Q925 1038 944 1023T967 984L1027
518Q1034 467 1040 418T1052 321Q1066 369 1082 417T1115 518L1261 983Q1269 1006 1291 1021T1341 1037H1569L1147 0H905Q887 0 876 12T859 52L783 569Q780 591 778 612T773 656Q765 633 756 611T739 567L541 52Q520 0 475 0H243L73 1037Z" />
<glyph unicode="x" glyph-name="x" horiz-adv-x="1070" d="M346 562L113 1037H397Q427 1037 440 1029T463 1001L578 734Q585 747 593 759T609 784L745 995Q771 1037 811 1037H1093L733 563L991 0H707Q677 0 660 16T633 54L504 371Q499 360 493 350T481 332L297
54Q283 33 264 17T215 0H-59L346 562Z" />
<glyph unicode="y" glyph-name="y" horiz-adv-x="1032" d="M421 -270Q405 -301 382 -315T325 -329H93L330 93L73 1037H335Q368 1037 384 1021T407 983L497 536Q503 507 508 479T516 421Q528 450 542 479T569 538L761 983Q773 1006 796 1021T843 1037H1093L421 -270Z" />
<glyph unicode="z" glyph-name="z" horiz-adv-x="892" d="M889 913Q885 881 871 852T839 802L391 230H799L771 0H-5L11 126Q13 145 27 173T61 228L513 807H119L147 1037H905L889 913Z" />
<glyph unicode="{" glyph-name="braceleft" horiz-adv-x="552" d="M96 432Q96 477 78 505T14 534L36 701Q73 701 96 717T132 764T149 844T154 956Q154 967 154 984T153 1019T153 1055T152 1084Q152 1198 177 1285T254 1433T389 1524T584 1555H630L614 1425Q612
1410 605 1400T587 1383T567 1373T548 1370Q491 1370 461 1329T422 1216Q415 1161 413 1113T410 1019T407 930T400 841Q395 803 381 768T345 702T292 650T222 616Q285 594 315 542T346 427Q346 370 335 316T309 207T284 98T272 -16Q272 -70 294 -102T364 -134Q380
-134 398 -146T416 -185Q416 -192 414 -211T409 -251T404 -292T400 -320H352Q263 -320 199 -299T93 -238T32 -143T12 -22Q12 42 25 100T54 214T83 323T96 432Z" />
<glyph unicode="|" glyph-name="bar" horiz-adv-x="600" d="M120 1557H360V-329H120V1557Z" />
<glyph unicode="}" glyph-name="braceright" horiz-adv-x="552" d="M430 151Q430 37 405 -50T328 -198T194 -289T0 -320H-48L-30 -192Q-25 -162 -2 -148T38 -134Q94 -133 123 -93T162 19Q169 73 171 121T175 215T177 304T184 392Q188 430 202 465T238 531T291
583T360 617Q297 639 267 691T236 809Q236 865 248 919T274 1027T300 1136T312 1251Q312 1304 291 1336T222 1370Q214 1370 205 1372T187 1381T174 1396T168 1418Q168 1419 170 1435T174 1470T178 1506T180 1524L184 1555H232Q320 1555 384 1534T489 1473T550 1378T570
1255Q570 1192 557 1134T529 1020T501 911T488 803Q488 758 505 730T568 701L548 534Q511 534 488 519T452 471T435 391T430 278V151Z" />
<glyph unicode="~" glyph-name="asciitilde" horiz-adv-x="1160" d="M670 677Q718 677 744 708T770 799H1020Q1020 714 998 646T933 531T830 458T690 432Q637 432 591 443T504 469T431 495T370 507Q322 507 296 476T270 385H20Q20 470 42 538T107 653T210 726T350
752Q403 752 449 741T536 715T609 689T670 677Z" />
<glyph unicode="&#xa0;" glyph-name="uni00A0" horiz-adv-x="386" />
<glyph unicode="&#xa1;" glyph-name="exclamdown" horiz-adv-x="698" d="M110 -331L176 198Q187 290 209 380T260 565H464Q466 527 467 491T469 417Q469 362 466 308T456 198L392 -331H110ZM222 882Q222 918 235 949T272 1003T328 1039T398 1053Q435 1053 467
1040T523 1003T560 949T574 882Q574 846 561 815T523 760T467 724T398 711Q360 711 328 724T273 760T236 814T222 882Z" />
<glyph unicode="&#xa2;" glyph-name="cent" horiz-adv-x="1160" d="M461 -7Q384 8 320 45T209 140T136 275T110 446Q110 569 149 676T264 863T447 993T694 1048L726 1192Q729 1205 737 1217T756 1240T782 1256T814 1263H924L873 1034Q948 1018 1007 985T1114 900L1024
798Q1010 781 997 774T960 766Q945 766 932 771T902 784T868 800T825 817L690 204Q736 210 768 223T824 249T869 273T912 284Q950 284 964 261L1034 158Q990 115 942 85T844 34T743 3T642 -12L614 -141Q608 -169 584 -191T526 -213H416L461 -7ZM404 460Q404 375
431 316T513 228L645 827Q582 816 536 786T461 709T418 598T404 460Z" />
<glyph unicode="&#xa3;" glyph-name="sterling" horiz-adv-x="1160" d="M929 662Q927 649 920 636T900 613T873 597T839 591H497L478 426Q470 363 449 314T390 221Q439 232 487 238T584 245H1102L1086 125Q1083 103 1071 81T1041 41T997 12T944 0H-12L12 180Q80
194 115 232T160 346L190 591H44L59 708Q61 721 68 733T88 756T115 772T149 779H213L240 1000Q252 1095 294 1180T407 1330T575 1433T792 1471Q880 1471 946 1451T1061 1396T1143 1312T1198 1204L1068 1127Q1051 1116 1033 1113T998 1109Q952 1109 922 1145Q904
1167 889 1183T856 1209T816 1223T762 1228Q676 1228 618 1170T546 1002L519 779H943L929 662V662Z" />
<glyph unicode="&#xa4;" glyph-name="currency" horiz-adv-x="1160" d="M238 674Q238 723 249 768T282 853L128 1006L284 1154L434 1006Q475 1028 521 1040T618 1052Q666 1052 710 1041T795 1008L948 1160L1102 1010L949 859Q972 818 985 772T998 674Q998 625
987 580T953 495L1108 343L952 194L801 342Q760 320 714 308T618 296Q570 296 526 307T441 338L288 188L134 338L286 488Q263 529 251 576T238 674ZM466 674Q466 642 478 613T510 562T558 528T618 515Q650 515 678 527T727 562T760 613T772 674Q772 708 760 737T727
788T678 822T618 835Q586 835 559 823T511 788T478 737T466 674Z" />
<glyph unicode="&#xa5;" glyph-name="yen" horiz-adv-x="1160" d="M142 637H395L104 1455H354Q395 1455 419 1436T452 1384L576 945Q590 894 600 851T615 766Q629 808 649 851T696 945L922 1384Q936 1412 965 1433T1036 1455H1288L793 637H1048L1028 477H725L714
389H1016L996 230H694L666 0H368L396 230H90L112 389H415L426 477H122L142 637Z" />
<glyph unicode="&#xa6;" glyph-name="brokenbar" horiz-adv-x="600" d="M120 1557H360V738H120V1557ZM120 490H360V-329H120V490Z" />
<glyph unicode="&#xa7;" glyph-name="section" horiz-adv-x="934" d="M860 1232Q846 1213 832 1205T798 1197Q777 1197 758 1206T716 1228T666 1249T602 1259Q567 1259 542 1251T500 1227T475 1192T466 1150Q466 1116 498 1091T580 1042T686 990T792 927T873 840T906
719Q906 631 864 557T727 435Q757 403 775 362T794 266Q794 184 764 114T677 -7T535 -88T342 -117Q293 -117 245 -108T153 -81T73 -41T12 9L96 120Q110 140 128 150T176 160Q201 160 219 148T260 122T313 96T394 84Q456 84 491 113T526 197Q526 241 494 270T412
322T306 368T200 426T119 512T86 641Q86 732 131 803T267 917Q236 952 217 997T198 1104Q198 1177 225 1243T306 1359T439 1439T624 1469Q676 1469 723 1459T811 1432T884 1390T940 1337L860 1232ZM358 714Q358 682 377 658T429 613T501 573T583 533Q612 553 624
579T636 635Q636 668 617 692T567 737T495 775T413 815Q383 795 371 771T358 714Z" />
<glyph unicode="&#xa8;" glyph-name="dieresis" horiz-adv-x="612" d="M376 1317Q376 1285 363 1257T328 1209T276 1176T212 1164Q180 1164 152 1176T102 1208T67 1257T54 1317Q54 1350 67 1379T101 1429T151 1463T212 1476Q246 1476 275 1464T327 1430T363 1379T376
1317ZM762 1317Q762 1285 750 1257T715 1209T664 1176T600 1164Q567 1164 538 1176T487 1208T453 1257T440 1317Q440 1350 452 1379T487 1429T538 1463T600 1476Q634 1476 663 1464T715 1430T749 1379T762 1317Z" />
<glyph unicode="&#xa9;" glyph-name="copyright" horiz-adv-x="1570" d="M1014 542Q1026 542 1037 536T1056 521L1158 416Q1104 341 1017 303T814 264Q713 264 632 300T493 400T405 549T374 732Q374 834 410 919T508 1067T655 1164T836 1199Q951 1199 1034 1159T1168
1059L1086 950Q1079 941 1067 931T1034 921Q1014 921 1000 930T967 950T923 970T852 979Q751 979 700 913T648 732Q648 672 661 626T699 549T756 502T830 486Q877 486 904 494T950 513T981 532T1014 542ZM70 729Q70 832 96 927T171 1104T288 1255T439 1371T616
1446T814 1473Q917 1473 1012 1447T1190 1372T1341 1255T1458 1105T1533 927T1560 729Q1560 627 1534 532T1459 355T1342 204T1191 88T1013 13T814 -14Q711 -14 617 12T439 87T288 204T172 354T97 531T70 729ZM236 729Q236 602 280 492T403 301T586 173T814 126Q937
126 1043 172T1229 300T1353 492T1398 729Q1398 814 1378 892T1320 1037T1229 1160T1111 1255T971 1315T814 1337Q692 1337 587 1290T403 1161T281 967T236 729Z" />
<glyph unicode="&#xaa;" glyph-name="ordfeminine" horiz-adv-x="652" d="M542 842Q513 842 499 849T476 882L468 909Q445 890 424 876T382 853T337 839T284 834Q207 834 166 873T124 982Q124 1018 138 1057T192 1129T300 1185T480 1211L482 1229Q482 1244 481
1259T475 1285T460 1304T430 1312Q403 1312 386 1306T353 1292T323 1278T284 1272Q261 1272 248 1283T228 1310L198 1377Q260 1430 330 1453T478 1477Q526 1477 565 1460T632 1413T675 1343T691 1256Q691 1249 691 1243T690 1229L642 842H542ZM372 974Q395 974
414 983T457 1014L465 1085Q423 1083 397 1077T356 1060T336 1036T330 1007Q330 989 339 982T372 974Z" />
<glyph unicode="&#xab;" glyph-name="guillemotleft" horiz-adv-x="964" d="M111 525L117 562L409 962L501 918Q539 900 539 866Q539 852 533 838T517 808L385 589Q376 574 366 563T344 543Q352 534 360 523T373 498L453 279Q457 268 459 258T462 238Q462 191
409 167L305 123L111 525ZM449 525L455 562L747 962L839 918Q877 900 877 866Q877 852 871 838T855 808L723 589Q714 574 704 563T682 543Q690 534 698 523T711 498L791 279Q795 268 797 258T800 238Q800 191 747 167L643 123L449 525Z" />
<glyph unicode="&#xac;" glyph-name="logicalnot" horiz-adv-x="1160" d="M162 779H1068L1006 286H754L789 565H136L162 779Z" />
<glyph unicode="&#xad;" glyph-name="uni00AD" horiz-adv-x="686" d="M122 728H624L592 486H92L122 728Z" />
<glyph unicode="&#xae;" glyph-name="registered" horiz-adv-x="1570" d="M64 729Q64 832 90 927T165 1104T282 1255T433 1371T610 1446T808 1473Q911 1473 1006 1447T1184 1372T1335 1255T1452 1105T1527 927T1554 729Q1554 627 1528 532T1453 355T1336 204T1185
88T1007 13T808 -14Q705 -14 611 12T433 87T282 204T166 354T91 531T64 729ZM230 729Q230 602 274 492T397 301T580 173T808 126Q923 126 1023 167T1202 281H986Q931 281 910 320L818 551Q810 569 796 576T758 583H726V281H458V1182H810Q910 1182 982 1164T1101
1112T1170 1028T1192 914Q1192 872 1182 834T1152 763T1099 704T1021 661Q1050 646 1070 623T1106 566L1230 309Q1306 390 1349 497T1392 729Q1392 814 1372 892T1314 1037T1223 1160T1105 1255T965 1315T808 1337Q686 1337 581 1290T397 1161T275 967T230 729ZM726
767H790Q838 767 865 774T907 796T924 831T928 880Q928 906 925 925T909 958T874 979T810 986H726V767Z" />
<glyph unicode="&#xaf;" glyph-name="overscore" horiz-adv-x="612" d="M132 1387H706L682 1203H108L132 1387Z" />
<glyph unicode="&#xb0;" glyph-name="degree" horiz-adv-x="794" d="M112 1119Q112 1193 140 1258T217 1371T332 1447T476 1475Q553 1475 620 1447T736 1371T814 1258T842 1119Q842 1047 814 983T737 870T620 794T476 765Q399 765 333 793T217 870T140 982T112
1119ZM326 1117Q326 1084 337 1056T368 1006T415 972T476 960Q509 960 536 972T584 1005T615 1055T626 1117Q626 1151 615 1180T584 1231T537 1265T476 1278Q443 1278 416 1266T368 1232T337 1181T326 1117Z" />
<glyph unicode="&#xb1;" glyph-name="plusminus" horiz-adv-x="1160" d="M796 1266L754 926H1128L1100 712H728L688 388H446L486 712H114L140 926H512L554 1266H796ZM62 295H1050L1022 80H36L62 295Z" />
<glyph unicode="&#xb2;" glyph-name="twosuperior" horiz-adv-x="668" d="M492 1656Q550 1656 593 1640T665 1597T708 1534T722 1458Q722 1412 707 1374T667 1303T608 1238T540 1175L419 1065Q453 1075 485 1080T544 1086H624Q655 1086 670 1072T686 1032Q686
1027 684 1007T679 962Q675 934 672 900H106L116 967Q119 986 129 1008T160 1048L384 1245Q409 1267 430 1292T468 1342T494 1391T504 1436Q504 1459 494 1475T460 1491Q437 1491 423 1480T392 1445Q378 1424 361 1413T317 1402Q304 1402 288 1405L172 1424Q205
1544 290 1600T492 1656Z" />
<glyph unicode="&#xb3;" glyph-name="threesuperior" horiz-adv-x="668" d="M514 1656Q571 1656 613 1640T684 1599T727 1541T742 1475Q742 1409 716 1365T624 1295Q669 1277 691 1246T714 1165Q714 1093 686 1042T615 957T517 908T410 892Q358 892 316 901T241
933T185 995T148 1097L246 1135Q270 1144 293 1144Q315 1144 330 1136T352 1112Q361 1087 379 1075T420 1063Q456 1063 478 1085T500 1148Q500 1186 473 1198T378 1210L396 1354Q436 1354 462 1358T504 1371T526 1396T532 1435Q532 1457 522 1472T482 1487Q455
1487 441 1477T414 1447Q399 1424 384 1413T344 1402Q332 1402 314 1405L206 1424Q222 1484 252 1527T323 1599T412 1642T514 1656Z" />
<glyph unicode="&#xb4;" glyph-name="acute" horiz-adv-x="612" d="M802 1471L528 1208Q504 1185 482 1177T426 1168H248L402 1413Q420 1441 444 1456T514 1471H802Z" />
<glyph unicode="&#xb5;" glyph-name="mu" horiz-adv-x="1072" d="M456 1035L374 377Q372 366 372 357T372 338Q372 276 397 243T474 210Q518 210 559 230T640 286L734 1035H1032L904 0H718Q664 0 652 50L642 111Q613 85 588 68T538 40T487 25T430 20Q389 20 355
32T294 66Q300 27 300 -16Q300 -42 298 -66T294 -114L268 -331H120Q63 -331 33 -305T3 -230Q3 -225 3 -221T4 -211L158 1035H456Z" />
<glyph unicode="&#xb6;" glyph-name="paragraph" horiz-adv-x="1458" d="M1550 1457L1518 1206H1309L1134 -216H864L1039 1206H843L668 -216H398L499 606Q404 606 327 634T196 713T113 831T84 979Q84 1075 122 1161T228 1314T392 1418T604 1457H1550Z" />
<glyph unicode="&#xb7;" glyph-name="middot" horiz-adv-x="570" d="M78 596Q78 641 95 681T143 750T214 797T302 814Q349 814 390 797T462 751T510 681T528 596Q528 551 511 512T463 443T391 396T302 379Q255 379 215 396T144 442T96 511T78 596Z" />
<glyph unicode="&#xb8;" glyph-name="cedilla" horiz-adv-x="612" d="M96 -214Q111 -214 122 -219T152 -224Q175 -224 185 -212T196 -186Q196 -166 171 -156T82 -136L142 17H328L304 -47Q375 -68 402 -102T430 -178Q430 -217 410 -248T353 -302T267 -335T158 -347Q120
-347 89 -343T22 -329L62 -239Q67 -228 74 -221T96 -214Z" />
<glyph unicode="&#xb9;" glyph-name="onesuperior" horiz-adv-x="668" d="M226 1050H355L390 1342L402 1395L344 1353Q333 1345 322 1343T301 1340Q284 1340 271 1347T252 1363L198 1451L462 1648H642L568 1050H654L636 900H206L226 1050Z" />
<glyph unicode="&#xba;" glyph-name="ordmasculine" horiz-adv-x="728" d="M486 1475Q550 1475 602 1456T691 1400T748 1313T768 1199Q768 1114 741 1046T665 929T550 856T408 830Q343 830 291 849T201 905T143 993T122 1110Q122 1194 150 1262T227 1377T343 1449T486
1475ZM430 998Q489 998 512 1049T536 1199Q536 1306 466 1306Q429 1306 407 1292T373 1251T358 1188T354 1106Q354 998 430 998Z" />
<glyph unicode="&#xbb;" glyph-name="guillemotright" horiz-adv-x="964" d="M532 562L528 525L236 123L144 167Q105 186 105 221Q105 235 110 249T126 279L260 498Q268 512 278 523T300 542Q282 560 272 589L190 808Q182 829 182 846Q182 869 195 888T236 918L340
962L532 562ZM870 562L866 525L574 123L482 167Q443 186 443 221Q443 235 448 249T464 279L598 498Q606 512 616 523T638 542Q620 560 610 589L528 808Q520 829 520 846Q520 869 533 888T574 918L678 962L870 562Z" />
<glyph unicode="&#xbc;" glyph-name="onequarter" horiz-adv-x="1475" d="M476 85Q441 35 403 18T316 0H194L1145 1357Q1179 1405 1220 1430T1316 1455H1438L476 85ZM1322 310H1404L1390 189Q1387 175 1376 163T1346 151H1302L1284 0H1106L1124 151H848Q821 151
807 163T790 195L782 297L1170 748H1376L1322 310ZM186 858H315L350 1150L362 1203L304 1161Q284 1147 257 1147Q240 1147 229 1154T212 1171L158 1259L422 1456H602L528 858H614L596 708H166L186 858ZM1156 413Q1162 467 1179 536L990 310H1143L1156 413Z" />
<glyph unicode="&#xbd;" glyph-name="onehalf" horiz-adv-x="1475" d="M448 85Q413 35 375 18T288 0H166L1117 1357Q1151 1405 1192 1430T1288 1455H1410L448 85ZM1172 756Q1230 756 1273 740T1345 697T1388 634T1402 558Q1402 512 1387 474T1347 403T1288 338T1220
275L1099 165Q1133 175 1165 180T1224 186H1304Q1335 186 1350 172T1366 132Q1366 130 1366 123T1362 88L1352 0H786L796 67Q798 86 809 108T840 148L1064 345Q1089 367 1110 392T1148 442T1174 491T1184 536Q1184 559 1174 575T1140 591Q1117 591 1103 580T1072
545Q1057 524 1041 513T998 502Q991 502 982 503T953 507L852 524Q885 644 970 700T1172 756ZM196 858H325L360 1150L372 1203L314 1161Q294 1147 267 1147Q250 1147 239 1154T222 1171L168 1259L432 1456H612L538 858H624L606 708H176L196 858Z" />
<glyph unicode="&#xbe;" glyph-name="threequarters" horiz-adv-x="1475" d="M488 85Q453 35 415 18T328 0H206L1157 1357Q1191 1405 1232 1430T1328 1455H1450L488 85ZM1332 310H1414L1400 189Q1397 175 1386 163T1356 151H1312L1294 0H1116L1134 151H858Q831
151 817 163T800 195L792 297L1180 748H1386L1332 310ZM486 1464Q543 1464 585 1448T656 1407T699 1349T714 1283Q714 1217 688 1173T596 1103Q641 1085 663 1054T686 973Q686 901 658 850T587 765T489 716T382 700Q330 700 288 709T213 741T157 803T120 905L218
943Q242 952 265 952Q287 952 302 944T324 920Q333 895 351 883T392 871Q428 871 450 893T472 956Q472 994 445 1006T350 1018L368 1162Q408 1162 434 1166T476 1179T498 1204T504 1243Q504 1265 494 1280T454 1295Q427 1295 413 1285T386 1255Q371 1232 356 1221T316
1210Q304 1210 286 1213L178 1232Q194 1292 224 1335T295 1407T384 1450T486 1464ZM1166 413Q1172 467 1189 536L1000 310H1153L1166 413Z" />
<glyph unicode="&#xbf;" glyph-name="questiondown" horiz-adv-x="820" d="M720 -198Q681 -228 638 -255T545 -303T441 -335T324 -347Q244 -347 181 -326T74 -266T7 -172T-16 -47Q-16 32 6 88T62 186T137 256T215 312T282 364T322 424L366 565H570V403Q570 356
549 320T495 254T426 198T357 143T304 82T282 6Q282 -55 310 -84T380 -113Q427 -113 460 -102T519 -78T563 -53T600 -41Q637 -41 656 -75L720 -198ZM322 883Q322 919 335 950T372 1004T428 1040T498 1054Q535 1054 567 1041T623 1004T660 950T674 883Q674 847 661
816T623 761T567 725T498 712Q460 712 428 725T373 761T336 815T322 883Z" />
<glyph unicode="&#xc0;" glyph-name="Agrave" horiz-adv-x="1326" d="M1288 0H1036Q994 0 969 19T938 71L893 333H398L290 71Q279 43 247 22T176 0H-80L616 1457H950L1288 0ZM489 555H855L784 971Q775 1023 765 1076T747 1174Q739 1150 726 1120T701 1060T677
1006T660 969L489 555ZM712 1796Q734 1796 749 1794T776 1788T798 1774T820 1752L962 1551H706Q673 1551 655 1561T614 1592L382 1796H712Z" />
<glyph unicode="&#xc1;" glyph-name="Aacute" horiz-adv-x="1326" d="M1288 0H1036Q994 0 969 19T938 71L893 333H398L290 71Q279 43 247 22T176 0H-80L616 1457H950L1288 0ZM489 555H855L784 971Q775 1023 765 1076T747 1174Q739 1150 726 1120T701 1060T677
1006T660 969L489 555ZM1274 1796L992 1592Q960 1569 935 1560T879 1551H634L826 1752Q841 1765 853 1774T878 1787T907 1794T946 1796H1274Z" />
<glyph unicode="&#xc2;" glyph-name="Acircumflex" horiz-adv-x="1326" d="M1288 0H1036Q994 0 969 19T938 71L893 333H398L290 71Q279 43 247 22T176 0H-80L616 1457H950L1288 0ZM489 555H855L784 971Q775 1023 765 1076T747 1174Q739 1150 726 1120T701 1060T677
1006T660 969L489 555ZM1166 1551H940Q923 1551 903 1555T872 1569L800 1632L712 1569Q699 1560 679 1556T640 1551H416L668 1776H968L1166 1551Z" />
<glyph unicode="&#xc3;" glyph-name="Atilde" horiz-adv-x="1326" d="M1288 0H1036Q994 0 969 19T938 71L893 333H398L290 71Q279 43 247 22T176 0H-80L616 1457H950L1288 0ZM489 555H855L784 971Q775 1023 765 1076T747 1174Q739 1150 726 1120T701 1060T677
1006T660 969L489 555ZM930 1723Q948 1723 962 1735T980 1776H1142Q1135 1722 1116 1678T1067 1602T999 1553T914 1535Q880 1535 849 1545T789 1566T738 1588T698 1598Q680 1598 667 1584T650 1541H486Q493 1595 512 1639T562 1716T630 1766T714 1784Q748 1784
780 1775T840 1754T890 1733T930 1723Z" />
<glyph unicode="&#xc4;" glyph-name="Adieresis" horiz-adv-x="1326" d="M1288 0H1036Q994 0 969 19T938 71L893 333H398L290 71Q279 43 247 22T176 0H-80L616 1457H950L1288 0ZM489 555H855L784 971Q775 1023 765 1076T747 1174Q739 1150 726 1120T701 1060T677
1006T660 969L489 555ZM738 1666Q738 1638 727 1614T697 1572T651 1544T596 1534Q569 1534 545 1544T501 1572T471 1614T460 1666Q460 1694 471 1719T501 1763T544 1793T596 1804Q625 1804 651 1793T696 1764T727 1720T738 1666ZM1096 1666Q1096 1638 1085 1614T1055
1572T1011 1544T956 1534Q927 1534 902 1544T859 1572T829 1614T818 1666Q818 1694 829 1719T858 1763T902 1793T956 1804Q985 1804 1010 1793T1055 1764T1085 1720T1096 1666Z" />
<glyph unicode="&#xc5;" glyph-name="Aring" horiz-adv-x="1326" d="M1288 0H1036Q994 0 969 19T938 71L893 333H398L290 71Q279 43 247 22T176 0H-80L616 1457H950L1288 0ZM489 555H855L784 971Q775 1023 765 1076T747 1174Q739 1150 726 1120T701 1060T677 1006T660
969L489 555ZM568 1701Q568 1747 586 1784T635 1848T706 1889T790 1904Q836 1904 877 1890T949 1849T999 1785T1018 1701Q1018 1657 1000 1621T950 1558T877 1518T790 1504Q746 1504 706 1518T636 1558T587 1620T568 1701ZM714 1701Q714 1666 733 1644T794 1621Q830
1621 851 1643T872 1701Q872 1739 851 1761T794 1783Q753 1783 734 1761T714 1701Z" />
<glyph unicode="&#xc6;" glyph-name="AE" horiz-adv-x="1716" d="M716 1457H1772L1740 1206H1142V852H1568L1538 610H1142V251H1624L1592 0H834V333H405L274 71Q260 42 227 21T152 0H-102L716 1457ZM516 555H834V1198Q813 1147 792 1102T748 1019L516 555Z" />
<glyph unicode="&#xc7;" glyph-name="Ccedilla" horiz-adv-x="1182" d="M486 -214Q501 -214 512 -219T542 -224Q565 -224 575 -212T586 -186Q586 -166 561 -156T472 -136L522 -8Q408 9 320 63T172 199T81 389T50 619Q50 744 78 856T157 1063T279 1234T438 1363T625
1444T834 1473Q916 1473 983 1458T1105 1415T1203 1349T1278 1265L1164 1133Q1152 1119 1136 1108T1094 1097Q1077 1097 1063 1105T1035 1124T1002 1150T959 1175T900 1195T818 1203Q726 1203 647 1164T509 1053T417 877T384 645Q384 552 406 479T468 356T561 279T678
252Q733 252 773 260T843 282T892 310T928 339T958 360T988 369Q1004 369 1014 364T1030 351L1144 214Q1061 116 952 59T707 -12L694 -47Q765 -68 792 -102T820 -178Q820 -217 800 -248T743 -302T657 -335T548 -347Q510 -347 479 -343T412 -329L452 -239Q457 -228
464 -221T486 -214Z" />
<glyph unicode="&#xc8;" glyph-name="Egrave" horiz-adv-x="1036" d="M1060 1206H521L477 854H890L858 612H447L403 251H946L914 0H44L224 1457H1092L1060 1206ZM590 1796Q612 1796 627 1794T654 1788T676 1774T698 1752L840 1551H584Q551 1551 533 1561T492 1592L260
1796H590Z" />
<glyph unicode="&#xc9;" glyph-name="Eacute" horiz-adv-x="1036" d="M1060 1206H521L477 854H890L858 612H447L403 251H946L914 0H44L224 1457H1092L1060 1206ZM1122 1796L840 1592Q808 1569 783 1560T727 1551H482L674 1752Q689 1765 701 1774T726 1787T755
1794T794 1796H1122Z" />
<glyph unicode="&#xca;" glyph-name="Ecircumflex" horiz-adv-x="1036" d="M1060 1206H521L477 854H890L858 612H447L403 251H946L914 0H44L224 1457H1092L1060 1206ZM1044 1551H818Q801 1551 781 1555T750 1569L678 1632L590 1569Q577 1560 557 1556T518 1551H294L546
1776H846L1044 1551Z" />
<glyph unicode="&#xcb;" glyph-name="Edieresis" horiz-adv-x="1036" d="M1060 1206H521L477 854H890L858 612H447L403 251H946L914 0H44L224 1457H1092L1060 1206ZM616 1666Q616 1638 605 1614T575 1572T529 1544T474 1534Q447 1534 423 1544T379 1572T349 1614T338
1666Q338 1694 349 1719T379 1763T422 1793T474 1804Q503 1804 529 1793T574 1764T605 1720T616 1666ZM974 1666Q974 1638 963 1614T933 1572T889 1544T834 1534Q805 1534 780 1544T737 1572T707 1614T696 1666Q696 1694 707 1719T736 1763T780 1793T834 1804Q863
1804 888 1793T933 1764T963 1720T974 1666Z" />
<glyph unicode="&#xcc;" glyph-name="Igrave" horiz-adv-x="592" d="M400 0H72L250 1457H578L400 0ZM605 1796Q627 1796 642 1794T669 1788T691 1774T713 1752L855 1551H599Q566 1551 548 1561T507 1592L275 1796H605Z" />
<glyph unicode="&#xcd;" glyph-name="Iacute" horiz-adv-x="592" d="M400 0H72L250 1457H578L400 0ZM1137 1796L855 1592Q823 1569 798 1560T742 1551H497L689 1752Q704 1765 716 1774T741 1787T770 1794T809 1796H1137Z" />
<glyph unicode="&#xce;" glyph-name="Icircumflex" horiz-adv-x="592" d="M400 0H72L250 1457H578L400 0ZM1059 1551H833Q816 1551 796 1555T765 1569L693 1632L605 1569Q592 1560 572 1556T533 1551H309L561 1776H861L1059 1551Z" />
<glyph unicode="&#xcf;" glyph-name="Idieresis" horiz-adv-x="592" d="M400 0H72L250 1457H578L400 0ZM631 1666Q631 1638 620 1614T590 1572T544 1544T489 1534Q462 1534 438 1544T394 1572T364 1614T353 1666Q353 1694 364 1719T394 1763T437 1793T489 1804Q518
1804 544 1793T589 1764T620 1720T631 1666ZM989 1666Q989 1638 978 1614T948 1572T904 1544T849 1534Q820 1534 795 1544T752 1572T722 1614T711 1666Q711 1694 722 1719T751 1763T795 1793T849 1804Q878 1804 903 1793T948 1764T978 1720T989 1666Z" />
<glyph unicode="&#xd0;" glyph-name="Eth" horiz-adv-x="1458" d="M92 819H240L318 1457H842Q986 1457 1100 1409T1295 1275T1417 1074T1460 822Q1460 703 1433 597T1356 399T1235 234T1075 108T883 28T664 0H140L218 641H68L92 819ZM1126 814Q1126 903 1106 975T1045
1099T945 1178T810 1206H614L568 819H880L858 641H546L500 251H696Q796 251 875 290T1010 403T1096 580T1126 814Z" />
<glyph unicode="&#xd1;" glyph-name="Ntilde" horiz-adv-x="1392" d="M396 1457Q417 1457 431 1456T457 1449T478 1433T496 1407L1007 507Q1009 542 1013 574T1020 634L1118 1457H1406L1226 0H1056Q1018 0 993 11T950 54L441 953Q439 925 437 899T432 850L332
0H44L224 1457H396V1457ZM956 1723Q974 1723 988 1735T1006 1776H1168Q1161 1722 1142 1678T1093 1602T1025 1553T940 1535Q906 1535 875 1545T815 1566T764 1588T724 1598Q706 1598 693 1584T676 1541H512Q519 1595 538 1639T588 1716T656 1766T740 1784Q774 1784
806 1775T866 1754T916 1733T956 1723Z" />
<glyph unicode="&#xd2;" glyph-name="Ograve" horiz-adv-x="1464" d="M1468 822Q1468 704 1441 596T1363 395T1241 226T1080 97T887 14T668 -16Q524 -16 410 34T215 172T93 378T50 634Q50 752 77 860T155 1062T278 1231T439 1360T632 1443T852 1473Q995 1473 1109
1423T1303 1284T1425 1077T1468 822ZM1134 814Q1134 904 1113 977T1050 1103T948 1184T812 1213Q712 1213 633 1172T499 1055T414 875T384 641Q384 551 405 478T466 353T567 273T704 244Q804 244 883 285T1018 401T1104 581T1134 814ZM778 1796Q800 1796 815 1794T842
1788T864 1774T886 1752L1028 1551H772Q739 1551 721 1561T680 1592L448 1796H778Z" />
<glyph unicode="&#xd3;" glyph-name="Oacute" horiz-adv-x="1464" d="M1468 822Q1468 704 1441 596T1363 395T1241 226T1080 97T887 14T668 -16Q524 -16 410 34T215 172T93 378T50 634Q50 752 77 860T155 1062T278 1231T439 1360T632 1443T852 1473Q995 1473 1109
1423T1303 1284T1425 1077T1468 822ZM1134 814Q1134 904 1113 977T1050 1103T948 1184T812 1213Q712 1213 633 1172T499 1055T414 875T384 641Q384 551 405 478T466 353T567 273T704 244Q804 244 883 285T1018 401T1104 581T1134 814ZM1310 1796L1028 1592Q996
1569 971 1560T915 1551H670L862 1752Q877 1765 889 1774T914 1787T943 1794T982 1796H1310Z" />
<glyph unicode="&#xd4;" glyph-name="Ocircumflex" horiz-adv-x="1464" d="M1468 822Q1468 704 1441 596T1363 395T1241 226T1080 97T887 14T668 -16Q524 -16 410 34T215 172T93 378T50 634Q50 752 77 860T155 1062T278 1231T439 1360T632 1443T852 1473Q995 1473
1109 1423T1303 1284T1425 1077T1468 822ZM1134 814Q1134 904 1113 977T1050 1103T948 1184T812 1213Q712 1213 633 1172T499 1055T414 875T384 641Q384 551 405 478T466 353T567 273T704 244Q804 244 883 285T1018 401T1104 581T1134 814ZM1232 1551H1006Q989
1551 969 1555T938 1569L866 1632L778 1569Q765 1560 745 1556T706 1551H482L734 1776H1034L1232 1551Z" />
<glyph unicode="&#xd5;" glyph-name="Otilde" horiz-adv-x="1464" d="M1468 822Q1468 704 1441 596T1363 395T1241 226T1080 97T887 14T668 -16Q524 -16 410 34T215 172T93 378T50 634Q50 752 77 860T155 1062T278 1231T439 1360T632 1443T852 1473Q995 1473 1109
1423T1303 1284T1425 1077T1468 822ZM1134 814Q1134 904 1113 977T1050 1103T948 1184T812 1213Q712 1213 633 1172T499 1055T414 875T384 641Q384 551 405 478T466 353T567 273T704 244Q804 244 883 285T1018 401T1104 581T1134 814ZM996 1723Q1014 1723 1028
1735T1046 1776H1208Q1201 1722 1182 1678T1133 1602T1065 1553T980 1535Q946 1535 915 1545T855 1566T804 1588T764 1598Q746 1598 733 1584T716 1541H552Q559 1595 578 1639T628 1716T696 1766T780 1784Q814 1784 846 1775T906 1754T956 1733T996 1723Z" />
<glyph unicode="&#xd6;" glyph-name="Odieresis" horiz-adv-x="1464" d="M1468 822Q1468 704 1441 596T1363 395T1241 226T1080 97T887 14T668 -16Q524 -16 410 34T215 172T93 378T50 634Q50 752 77 860T155 1062T278 1231T439 1360T632 1443T852 1473Q995 1473
1109 1423T1303 1284T1425 1077T1468 822ZM1134 814Q1134 904 1113 977T1050 1103T948 1184T812 1213Q712 1213 633 1172T499 1055T414 875T384 641Q384 551 405 478T466 353T567 273T704 244Q804 244 883 285T1018 401T1104 581T1134 814ZM804 1666Q804 1638 793
1614T763 1572T717 1544T662 1534Q635 1534 611 1544T567 1572T537 1614T526 1666Q526 1694 537 1719T567 1763T610 1793T662 1804Q691 1804 717 1793T762 1764T793 1720T804 1666ZM1162 1666Q1162 1638 1151 1614T1121 1572T1077 1544T1022 1534Q993 1534 968
1544T925 1572T895 1614T884 1666Q884 1694 895 1719T924 1763T968 1793T1022 1804Q1051 1804 1076 1793T1121 1764T1151 1720T1162 1666Z" />
<glyph unicode="&#xd7;" glyph-name="multiply" horiz-adv-x="1160" d="M1106 985L755 673L1046 341L870 190L581 518L210 188L72 339L446 672L170 987L346 1139L620 827L968 1137L1106 985Z" />
<glyph unicode="&#xd8;" glyph-name="Oslash" horiz-adv-x="1464" d="M1468 822Q1468 704 1441 596T1363 395T1241 226T1080 97T887 14T668 -16Q584 -16 511 1T374 50L312 -29Q293 -53 270 -69T223 -95T173 -109T126 -113H-2L219 168Q137 257 94 376T50 634Q50
752 77 860T155 1062T278 1231T439 1360T632 1443T852 1473Q946 1473 1027 1451T1176 1388L1220 1444Q1237 1466 1251 1481T1282 1505T1317 1517T1362 1521H1528L1323 1260Q1394 1173 1431 1062T1468 822ZM384 641Q384 518 423 428L994 1157Q957 1184 912 1198T812
1213Q712 1213 633 1172T499 1055T414 875T384 641ZM1134 814Q1134 862 1128 905T1109 987L553 279Q618 244 704 244Q804 244 883 285T1018 401T1104 581T1134 814Z" />
<glyph unicode="&#xd9;" glyph-name="Ugrave" horiz-adv-x="1334" d="M640 256Q701 256 751 279T839 346T902 452T936 591L1042 1457H1368L1262 591Q1245 458 1192 347T1053 155T854 29T606 -16Q484 -16 389 21T228 125T128 287T94 494Q94 541 100 591L204 1457H530L424
591Q422 573 421 556T420 521Q420 397 476 327T640 256ZM718 1795Q740 1795 755 1793T782 1787T804 1773T826 1751L968 1550H712Q679 1550 661 1560T620 1591L388 1795H718Z" />
<glyph unicode="&#xda;" glyph-name="Uacute" horiz-adv-x="1334" d="M640 256Q701 256 751 279T839 346T902 452T936 591L1042 1457H1368L1262 591Q1245 458 1192 347T1053 155T854 29T606 -16Q484 -16 389 21T228 125T128 287T94 494Q94 541 100 591L204 1457H530L424
591Q422 573 421 556T420 521Q420 397 476 327T640 256ZM1250 1795L968 1591Q936 1568 911 1559T855 1550H610L802 1751Q817 1764 829 1773T854 1786T883 1793T922 1795H1250Z" />
<glyph unicode="&#xdb;" glyph-name="Ucircumflex" horiz-adv-x="1334" d="M640 256Q701 256 751 279T839 346T902 452T936 591L1042 1457H1368L1262 591Q1245 458 1192 347T1053 155T854 29T606 -16Q484 -16 389 21T228 125T128 287T94 494Q94 541 100 591L204
1457H530L424 591Q422 573 421 556T420 521Q420 397 476 327T640 256ZM1172 1550H946Q929 1550 909 1554T878 1568L806 1631L718 1568Q705 1559 685 1555T646 1550H422L674 1775H974L1172 1550Z" />
<glyph unicode="&#xdc;" glyph-name="Udieresis" horiz-adv-x="1334" d="M640 256Q701 256 751 279T839 346T902 452T936 591L1042 1457H1368L1262 591Q1245 458 1192 347T1053 155T854 29T606 -16Q484 -16 389 21T228 125T128 287T94 494Q94 541 100 591L204
1457H530L424 591Q422 573 421 556T420 521Q420 397 476 327T640 256ZM744 1665Q744 1637 733 1613T703 1571T657 1543T602 1533Q575 1533 551 1543T507 1571T477 1613T466 1665Q466 1693 477 1718T507 1762T550 1792T602 1803Q631 1803 657 1792T702 1763T733
1719T744 1665ZM1102 1665Q1102 1637 1091 1613T1061 1571T1017 1543T962 1533Q933 1533 908 1543T865 1571T835 1613T824 1665Q824 1693 835 1718T864 1762T908 1792T962 1803Q991 1803 1016 1792T1061 1763T1091 1719T1102 1665Z" />
<glyph unicode="&#xdd;" glyph-name="Yacute" horiz-adv-x="1256" d="M799 558L730 0H404L473 555L98 1457H388Q430 1457 453 1438T488 1386L628 945Q642 901 653 860T673 781Q692 819 715 859T764 945L1012 1386Q1027 1413 1056 1435T1126 1457H1396L799 558ZM1236
1793L954 1589Q922 1566 897 1557T841 1548H596L788 1749Q803 1762 815 1771T840 1784T869 1791T908 1793H1236Z" />
<glyph unicode="&#xde;" glyph-name="Thorn" horiz-adv-x="1180" d="M578 1216H736Q865 1216 957 1185T1110 1099T1198 970T1226 808Q1226 688 1190 587T1078 411T888 296T616 254H459L428 0H104L282 1457H608L578 1216ZM548 973L489 499H648Q718 499 765 519T842
577T885 667T898 781Q898 824 887 859T851 919T791 959T704 973H548Z" />
<glyph unicode="&#xdf;" glyph-name="germandbls" horiz-adv-x="1214" d="M785 1483Q898 1483 974 1450T1096 1368T1161 1261T1181 1155Q1181 1090 1162 1045T1113 968T1050 913T987 870T939 827T919 775Q919 749 938 728T985 685T1046 638T1107 578T1154 497T1173
386Q1173 285 1136 210T1038 84T900 9T741 -16Q700 -16 659 -6T580 21T509 61T451 112L535 222Q549 240 568 251T615 263Q640 263 659 251T697 224T738 197T793 185Q810 185 827 194T857 219T879 258T887 308Q887 344 866 370T812 418T742 464T672 517T619 589T597
689Q597 760 619 808T673 892T744 954T814 1008T869 1068T891 1147Q891 1204 856 1239T745 1274Q687 1274 644 1240T569 1150T519 1024T491 881L391 50L337 -124Q319 -182 282 -214T177 -246H51L181 824L105 842Q75 849 57 863T38 903Q38 904 38 907T40 922T45
960T53 1031H222Q252 1120 305 1201T430 1345T591 1445T785 1483Z" />
<glyph unicode="&#xe0;" glyph-name="agrave" horiz-adv-x="1058" d="M897 0H731Q702 0 683 7T652 28T636 59T631 98V172Q567 84 489 34T317 -16Q261 -16 209 6T117 74T53 190T29 357Q29 498 80 624T224 846T444 997T723 1053Q797 1053 873 1043T1023 1007L897
0ZM441 229Q475 229 507 254T567 324T620 427T661 553L697 840H679Q603 840 541 806T433 714T364 578T339 412Q339 362 347 327T368 271T400 239T441 229ZM673 1471Q717 1471 737 1457T769 1413L863 1168H693Q660 1168 641 1177T603 1208L393 1471H673Z" />
<glyph unicode="&#xe1;" glyph-name="aacute" horiz-adv-x="1058" d="M897 0H731Q702 0 683 7T652 28T636 59T631 98V172Q567 84 489 34T317 -16Q261 -16 209 6T117 74T53 190T29 357Q29 498 80 624T224 846T444 997T723 1053Q797 1053 873 1043T1023 1007L897
0ZM441 229Q475 229 507 254T567 324T620 427T661 553L697 840H679Q603 840 541 806T433 714T364 578T339 412Q339 362 347 327T368 271T400 239T441 229ZM1099 1471L825 1208Q801 1185 779 1177T723 1168H545L699 1413Q717 1441 741 1456T811 1471H1099Z" />
<glyph unicode="&#xe2;" glyph-name="acircumflex" horiz-adv-x="1058" d="M897 0H731Q702 0 683 7T652 28T636 59T631 98V172Q567 84 489 34T317 -16Q261 -16 209 6T117 74T53 190T29 357Q29 498 80 624T224 846T444 997T723 1053Q797 1053 873 1043T1023 1007L897
0ZM441 229Q475 229 507 254T567 324T620 427T661 553L697 840H679Q603 840 541 806T433 714T364 578T339 412Q339 362 347 327T368 271T400 239T441 229ZM1043 1168H845Q828 1168 813 1174T791 1188L727 1263Q722 1268 717 1273T706 1286Q698 1279 692 1274T679
1263L595 1188Q586 1180 570 1174T535 1168H329L581 1455H863L1043 1168Z" />
<glyph unicode="&#xe3;" glyph-name="atilde" horiz-adv-x="1058" d="M897 0H731Q702 0 683 7T652 28T636 59T631 98V172Q567 84 489 34T317 -16Q261 -16 209 6T117 74T53 190T29 357Q29 498 80 624T224 846T444 997T723 1053Q797 1053 873 1043T1023 1007L897
0ZM441 229Q475 229 507 254T567 324T620 427T661 553L697 840H679Q603 840 541 806T433 714T364 578T339 412Q339 362 347 327T368 271T400 239T441 229ZM811 1381Q832 1381 846 1394T867 1449H1047Q1039 1388 1017 1339T961 1255T885 1201T797 1182Q762 1182
734 1194T683 1220T640 1246T605 1258Q584 1258 570 1244T551 1188H369Q376 1249 399 1298T456 1383T532 1438T619 1457Q653 1457 681 1445T733 1419T776 1393T811 1381Z" />
<glyph unicode="&#xe4;" glyph-name="adieresis" horiz-adv-x="1058" d="M897 0H731Q702 0 683 7T652 28T636 59T631 98V172Q567 84 489 34T317 -16Q261 -16 209 6T117 74T53 190T29 357Q29 498 80 624T224 846T444 997T723 1053Q797 1053 873 1043T1023 1007L897
0ZM441 229Q475 229 507 254T567 324T620 427T661 553L697 840H679Q603 840 541 806T433 714T364 578T339 412Q339 362 347 327T368 271T400 239T441 229ZM673 1317Q673 1285 660 1257T625 1209T573 1176T509 1164Q477 1164 449 1176T399 1208T364 1257T351 1317Q351
1350 364 1379T398 1429T448 1463T509 1476Q543 1476 572 1464T624 1430T660 1379T673 1317ZM1059 1317Q1059 1285 1047 1257T1012 1209T961 1176T897 1164Q864 1164 835 1176T784 1208T750 1257T737 1317Q737 1350 749 1379T784 1429T835 1463T897 1476Q931 1476
960 1464T1012 1430T1046 1379T1059 1317Z" />
<glyph unicode="&#xe5;" glyph-name="aring" horiz-adv-x="1058" d="M897 0H731Q702 0 683 7T652 28T636 59T631 98V172Q567 84 489 34T317 -16Q261 -16 209 6T117 74T53 190T29 357Q29 498 80 624T224 846T444 997T723 1053Q797 1053 873 1043T1023 1007L897
0ZM441 229Q475 229 507 254T567 324T620 427T661 553L697 840H679Q603 840 541 806T433 714T364 578T339 412Q339 362 347 327T368 271T400 239T441 229ZM481 1334Q481 1384 501 1424T554 1494T631 1538T723 1554Q772 1554 817 1539T896 1494T951 1425T971 1334Q971
1285 951 1246T897 1178T817 1135T723 1119Q675 1119 631 1134T554 1178T501 1245T481 1334ZM647 1334Q647 1299 666 1277T727 1254Q763 1254 784 1276T805 1334Q805 1372 784 1394T727 1416Q686 1416 667 1394T647 1334Z" />
<glyph unicode="&#xe6;" glyph-name="ae" horiz-adv-x="1473" d="M1122 1051Q1189 1051 1247 1029T1349 969T1417 881T1442 773Q1442 737 1433 700T1400 627T1335 560T1230 503T1075 462T864 441Q867 322 914 269T1046 216Q1087 216 1117 223T1169 241T1210 264T1244
287T1279 305T1320 312Q1335 312 1349 305T1374 285L1454 192Q1399 138 1347 99T1239 34T1121 -4T984 -16Q892 -16 812 27T681 164Q646 117 604 83T514 27T416 -5T316 -16Q154 -16 77 51T0 237Q0 279 11 323T50 409T122 488T233 554T390 601T600 622Q605 654 606
668T607 693Q607 762 579 793T498 825Q448 825 416 813T356 786T304 759T244 746Q214 746 194 761T164 798L122 892Q219 974 319 1014T532 1055Q635 1055 699 1019T795 918Q858 981 939 1016T1122 1051ZM578 446Q487 441 431 426T343 387T300 335T288 273Q288 181
374 181Q411 181 444 194T504 236T549 311T576 425L578 446ZM1082 844Q1038 844 1004 828T944 781T901 707T875 611Q971 620 1029 635T1119 670T1161 711T1172 758Q1172 793 1152 818T1082 844Z" />
<glyph unicode="&#xe7;" glyph-name="ccedilla" horiz-adv-x="876" d="M293 -214Q308 -214 319 -219T349 -224Q372 -224 382 -212T393 -186Q393 -166 368 -156T279 -136L330 -4Q263 12 210 49T119 140T61 266T41 423Q41 550 82 664T198 864T375 1000T599 1051Q703
1051 777 1016T911 904L811 789Q800 778 786 770T755 761Q735 761 722 769T692 787T653 805T593 814Q547 814 504 788T426 711T372 588T351 422Q351 370 363 332T396 268T445 229T505 216Q553 216 582 229T634 259T675 288T721 302Q736 302 750 295T775 276L855
182Q813 135 774 101T694 43T609 7T514 -12L501 -47Q572 -68 599 -102T627 -178Q627 -217 607 -248T550 -302T464 -335T355 -347Q317 -347 286 -343T219 -329L259 -239Q264 -228 271 -221T293 -214Z" />
<glyph unicode="&#xe8;" glyph-name="egrave" horiz-adv-x="968" d="M951 782Q951 711 923 652T826 548T639 470T343 420Q345 314 389 265T521 216Q562 216 592 223T644 241T685 264T719 287T754 305T795 312Q810 312 824 305T849 285L929 192Q874 138 822 99T714
34T596 -4T459 -16Q367 -16 290 15T158 104T72 243T41 423Q41 506 59 585T112 733T197 861T309 962T446 1027T605 1051Q688 1051 752 1027T861 965T928 878T951 782ZM587 842Q510 842 452 781T365 612Q462 627 522 643T615 679T659 721T671 770Q671 796 651 819T587
842ZM553 1471Q597 1471 617 1457T649 1413L743 1168H573Q540 1168 521 1177T483 1208L273 1471H553Z" />
<glyph unicode="&#xe9;" glyph-name="eacute" horiz-adv-x="968" d="M951 782Q951 711 923 652T826 548T639 470T343 420Q345 314 389 265T521 216Q562 216 592 223T644 241T685 264T719 287T754 305T795 312Q810 312 824 305T849 285L929 192Q874 138 822 99T714
34T596 -4T459 -16Q367 -16 290 15T158 104T72 243T41 423Q41 506 59 585T112 733T197 861T309 962T446 1027T605 1051Q688 1051 752 1027T861 965T928 878T951 782ZM587 842Q510 842 452 781T365 612Q462 627 522 643T615 679T659 721T671 770Q671 796 651 819T587
842ZM1019 1471L745 1208Q721 1185 699 1177T643 1168H465L619 1413Q637 1441 661 1456T731 1471H1019Z" />
<glyph unicode="&#xea;" glyph-name="ecircumflex" horiz-adv-x="968" d="M951 782Q951 711 923 652T826 548T639 470T343 420Q345 314 389 265T521 216Q562 216 592 223T644 241T685 264T719 287T754 305T795 312Q810 312 824 305T849 285L929 192Q874 138 822
99T714 34T596 -4T459 -16Q367 -16 290 15T158 104T72 243T41 423Q41 506 59 585T112 733T197 861T309 962T446 1027T605 1051Q688 1051 752 1027T861 965T928 878T951 782ZM587 842Q510 842 452 781T365 612Q462 627 522 643T615 679T659 721T671 770Q671 796
651 819T587 842ZM963 1168H765Q748 1168 733 1174T711 1188L647 1263Q642 1268 637 1273T626 1286Q618 1279 612 1274T599 1263L515 1188Q506 1180 490 1174T455 1168H249L501 1455H783L963 1168Z" />
<glyph unicode="&#xeb;" glyph-name="edieresis" horiz-adv-x="968" d="M951 782Q951 711 923 652T826 548T639 470T343 420Q345 314 389 265T521 216Q562 216 592 223T644 241T685 264T719 287T754 305T795 312Q810 312 824 305T849 285L929 192Q874 138 822
99T714 34T596 -4T459 -16Q367 -16 290 15T158 104T72 243T41 423Q41 506 59 585T112 733T197 861T309 962T446 1027T605 1051Q688 1051 752 1027T861 965T928 878T951 782ZM587 842Q510 842 452 781T365 612Q462 627 522 643T615 679T659 721T671 770Q671 796
651 819T587 842ZM593 1317Q593 1285 580 1257T545 1209T493 1176T429 1164Q397 1164 369 1176T319 1208T284 1257T271 1317Q271 1350 284 1379T318 1429T368 1463T429 1476Q463 1476 492 1464T544 1430T580 1379T593 1317ZM979 1317Q979 1285 967 1257T932 1209T881
1176T817 1164Q784 1164 755 1176T704 1208T670 1257T657 1317Q657 1350 669 1379T704 1429T755 1463T817 1476Q851 1476 880 1464T932 1430T966 1379T979 1317Z" />
<glyph unicode="&#xec;" glyph-name="igrave" horiz-adv-x="540" d="M485 1037L361 0H55L179 1037H485ZM285 1471Q329 1471 349 1457T381 1413L475 1168H305Q272 1168 253 1177T215 1208L5 1471H285Z" />
<glyph unicode="&#xed;" glyph-name="iacute" horiz-adv-x="540" d="M485 1037L361 0H55L179 1037H485ZM1008 1471L734 1208Q710 1185 688 1177T632 1168H454L608 1413Q626 1441 650 1456T720 1471H1008Z" />
<glyph unicode="&#xee;" glyph-name="icircumflex" horiz-adv-x="540" d="M485 1037L361 0H55L179 1037H485ZM952 1168H754Q737 1168 722 1174T700 1188L636 1263Q631 1268 626 1273T615 1286Q607 1279 601 1274T588 1263L504 1188Q495 1180 479 1174T444 1168H238L490
1455H772L952 1168Z" />
<glyph unicode="&#xef;" glyph-name="idieresis" horiz-adv-x="540" d="M485 1037L361 0H55L179 1037H485ZM582 1317Q582 1285 569 1257T534 1209T482 1176T418 1164Q386 1164 358 1176T308 1208T273 1257T260 1317Q260 1350 273 1379T307 1429T357 1463T418 1476Q452
1476 481 1464T533 1430T569 1379T582 1317ZM968 1317Q968 1285 956 1257T921 1209T870 1176T806 1164Q773 1164 744 1176T693 1208T659 1257T646 1317Q646 1350 658 1379T693 1429T744 1463T806 1476Q840 1476 869 1464T921 1430T955 1379T968 1317Z" />
<glyph unicode="&#xf0;" glyph-name="eth" horiz-adv-x="1068" d="M405 1057Q397 1069 397 1085Q397 1099 404 1110T423 1129L527 1189Q501 1201 473 1211T414 1233Q353 1253 353 1298Q353 1310 357 1323T369 1351L415 1443Q515 1426 603 1392T767 1303L958 1410L1008
1315Q1016 1299 1016 1284Q1016 1270 1009 1258T985 1236L894 1183Q963 1097 1001 984T1039 728Q1039 554 999 416T884 182T701 35T457 -16Q365 -16 289 13T157 98T72 232T41 411Q41 517 78 612T182 779T337 893T531 935Q622 935 688 903T801 808Q796 896 769 965T683
1089L461 960L405 1057ZM493 205Q532 205 570 222T642 280T702 390T744 564Q734 596 720 623T683 671T632 703T565 715Q512 715 470 693T399 631T353 539T337 424Q337 318 380 262T493 205Z" />
<glyph unicode="&#xf1;" glyph-name="ntilde" horiz-adv-x="1100" d="M641 0L719 659Q721 675 722 688T723 714Q723 767 705 787T649 808Q615 808 578 787T508 728T446 636T402 515L345 0H35L159 1037H319Q367 1037 394 1015T421 941V858Q496 958 585 1005T769
1053Q827 1053 875 1032T959 971T1014 871T1034 735Q1034 717 1033 698T1029 659L951 0H641ZM771 1383Q792 1383 806 1396T827 1451H1007Q999 1390 977 1341T921 1257T845 1203T757 1184Q722 1184 694 1196T643 1222T600 1248T565 1260Q544 1260 530 1246T511 1190H329Q336
1251 359 1300T416 1385T492 1440T579 1459Q613 1459 641 1447T693 1421T736 1395T771 1383Z" />
<glyph unicode="&#xf2;" glyph-name="ograve" horiz-adv-x="1034" d="M471 214Q523 214 564 245T633 331T677 458T693 613Q693 726 663 774T563 823Q511 823 470 792T401 706T357 579T341 424Q341 313 371 264T471 214ZM443 -16Q356 -16 281 13T150 97T63 234T31
422Q31 560 76 675T199 875T377 1006T591 1053Q678 1053 753 1024T883 940T971 803T1003 615Q1003 479 958 364T835 164T657 32T443 -16ZM539 1473Q583 1473 603 1459T635 1415L729 1170H559Q526 1170 507 1179T469 1210L259 1473H539Z" />
<glyph unicode="&#xf3;" glyph-name="oacute" horiz-adv-x="1034" d="M471 214Q523 214 564 245T633 331T677 458T693 613Q693 726 663 774T563 823Q511 823 470 792T401 706T357 579T341 424Q341 313 371 264T471 214ZM443 -16Q356 -16 281 13T150 97T63 234T31
422Q31 560 76 675T199 875T377 1006T591 1053Q678 1053 753 1024T883 940T971 803T1003 615Q1003 479 958 364T835 164T657 32T443 -16ZM1005 1473L731 1210Q707 1187 685 1179T629 1170H451L605 1415Q623 1443 647 1458T717 1473H1005Z" />
<glyph unicode="&#xf4;" glyph-name="ocircumflex" horiz-adv-x="1034" d="M471 214Q523 214 564 245T633 331T677 458T693 613Q693 726 663 774T563 823Q511 823 470 792T401 706T357 579T341 424Q341 313 371 264T471 214ZM443 -16Q356 -16 281 13T150 97T63
234T31 422Q31 560 76 675T199 875T377 1006T591 1053Q678 1053 753 1024T883 940T971 803T1003 615Q1003 479 958 364T835 164T657 32T443 -16ZM949 1170H751Q734 1170 719 1176T697 1190L633 1265Q628 1270 623 1275T612 1288Q604 1281 598 1276T585 1265L501
1190Q492 1182 476 1176T441 1170H235L487 1457H769L949 1170Z" />
<glyph unicode="&#xf5;" glyph-name="otilde" horiz-adv-x="1034" d="M471 214Q523 214 564 245T633 331T677 458T693 613Q693 726 663 774T563 823Q511 823 470 792T401 706T357 579T341 424Q341 313 371 264T471 214ZM443 -16Q356 -16 281 13T150 97T63 234T31
422Q31 560 76 675T199 875T377 1006T591 1053Q678 1053 753 1024T883 940T971 803T1003 615Q1003 479 958 364T835 164T657 32T443 -16ZM717 1383Q738 1383 752 1396T773 1451H953Q945 1390 923 1341T867 1257T791 1203T703 1184Q668 1184 640 1196T589 1222T546
1248T511 1260Q490 1260 476 1246T457 1190H275Q282 1251 305 1300T362 1385T438 1440T525 1459Q559 1459 587 1447T639 1421T682 1395T717 1383Z" />
<glyph unicode="&#xf6;" glyph-name="odieresis" horiz-adv-x="1034" d="M471 214Q523 214 564 245T633 331T677 458T693 613Q693 726 663 774T563 823Q511 823 470 792T401 706T357 579T341 424Q341 313 371 264T471 214ZM443 -16Q356 -16 281 13T150 97T63 234T31
422Q31 560 76 675T199 875T377 1006T591 1053Q678 1053 753 1024T883 940T971 803T1003 615Q1003 479 958 364T835 164T657 32T443 -16ZM579 1319Q579 1287 566 1259T531 1211T479 1178T415 1166Q383 1166 355 1178T305 1210T270 1259T257 1319Q257 1352 270 1381T304
1431T354 1465T415 1478Q449 1478 478 1466T530 1432T566 1381T579 1319ZM965 1319Q965 1287 953 1259T918 1211T867 1178T803 1166Q770 1166 741 1178T690 1210T656 1259T643 1319Q643 1352 655 1381T690 1431T741 1465T803 1478Q837 1478 866 1466T918 1432T952
1381T965 1319Z" />
<glyph unicode="&#xf7;" glyph-name="divide" horiz-adv-x="1160" d="M122 779H1110L1082 565H94L122 779ZM472 1008Q472 1047 487 1081T529 1140T591 1180T666 1195Q699 1195 727 1184T775 1152T806 1104T818 1045Q818 1006 802 972T759 914T697 875T624 861Q590
861 562 872T514 903T483 950T472 1008ZM384 296Q384 335 399 369T441 428T503 468T578 483Q611 483 639 472T687 440T718 392T730 333Q730 294 714 260T671 202T609 163T536 149Q502 149 474 160T426 191T395 238T384 296Z" />
<glyph unicode="&#xf8;" glyph-name="oslash" horiz-adv-x="1034" d="M443 -16Q336 -16 248 27Q212 -11 167 -27T77 -43H-35L106 149Q70 202 51 270T31 422Q31 560 76 675T199 875T377 1006T591 1053Q696 1053 785 1010Q800 1030 813 1044T841 1067T874 1080T919
1084H1071L927 888Q963 835 983 767T1003 615Q1003 479 958 364T835 164T657 32T443 -16ZM471 195Q523 195 567 224T643 308T694 439T713 613Q713 618 713 622T712 631L409 209Q437 195 471 195ZM321 407L622 829Q594 842 563 842Q511 842 467 813T391 730T340
599T321 424V407Z" />
<glyph unicode="&#xf9;" glyph-name="ugrave" horiz-adv-x="1098" d="M459 1037L381 379Q379 363 378 350T377 324Q377 271 395 250T451 229Q482 229 516 247T583 299T642 381T688 488L755 1037H1065L939 0H781Q671 0 671 102V168Q596 74 510 29T331 -16Q273 -16
225 5T141 66T86 166T66 303Q66 321 67 340T71 379L149 1037H459ZM565 1473Q609 1473 629 1459T661 1415L755 1170H585Q552 1170 533 1179T495 1210L285 1473H565Z" />
<glyph unicode="&#xfa;" glyph-name="uacute" horiz-adv-x="1098" d="M459 1037L381 379Q379 363 378 350T377 324Q377 271 395 250T451 229Q482 229 516 247T583 299T642 381T688 488L755 1037H1065L939 0H781Q671 0 671 102V168Q596 74 510 29T331 -16Q273 -16
225 5T141 66T86 166T66 303Q66 321 67 340T71 379L149 1037H459ZM1031 1473L757 1210Q733 1187 711 1179T655 1170H477L631 1415Q649 1443 673 1458T743 1473H1031Z" />
<glyph unicode="&#xfb;" glyph-name="ucircumflex" horiz-adv-x="1098" d="M459 1037L381 379Q379 363 378 350T377 324Q377 271 395 250T451 229Q482 229 516 247T583 299T642 381T688 488L755 1037H1065L939 0H781Q671 0 671 102V168Q596 74 510 29T331 -16Q273
-16 225 5T141 66T86 166T66 303Q66 321 67 340T71 379L149 1037H459ZM975 1170H777Q760 1170 745 1176T723 1190L659 1265Q654 1270 649 1275T638 1288Q630 1281 624 1276T611 1265L527 1190Q518 1182 502 1176T467 1170H261L513 1457H795L975 1170Z" />
<glyph unicode="&#xfc;" glyph-name="udieresis" horiz-adv-x="1098" d="M459 1037L381 379Q379 363 378 350T377 324Q377 271 395 250T451 229Q482 229 516 247T583 299T642 381T688 488L755 1037H1065L939 0H781Q671 0 671 102V168Q596 74 510 29T331 -16Q273
-16 225 5T141 66T86 166T66 303Q66 321 67 340T71 379L149 1037H459ZM605 1319Q605 1287 592 1259T557 1211T505 1178T441 1166Q409 1166 381 1178T331 1210T296 1259T283 1319Q283 1352 296 1381T330 1431T380 1465T441 1478Q475 1478 504 1466T556 1432T592
1381T605 1319ZM991 1319Q991 1287 979 1259T944 1211T893 1178T829 1166Q796 1166 767 1178T716 1210T682 1259T669 1319Q669 1352 681 1381T716 1431T767 1465T829 1478Q863 1478 892 1466T944 1432T978 1381T991 1319Z" />
<glyph unicode="&#xfd;" glyph-name="yacute" horiz-adv-x="1032" d="M421 -270Q405 -301 382 -315T325 -329H93L330 93L73 1037H335Q368 1037 384 1021T407 983L497 536Q503 507 508 479T516 421Q528 450 542 479T569 538L761 983Q773 1006 796 1021T843 1037H1093L421
-270ZM1005 1473L731 1210Q707 1187 685 1179T629 1170H451L605 1415Q623 1443 647 1458T717 1473H1005Z" />
<glyph unicode="&#xfe;" glyph-name="thorn" horiz-adv-x="1090" d="M3 -329L225 1497H531L454 876Q522 958 603 1005T775 1053Q839 1053 892 1031T983 960T1043 838T1065 660Q1065 524 1024 402T912 186T751 39T559 -16Q494 -16 443 5T353 61L317 -231Q315 -250
306 -267T281 -298T244 -320T197 -329H3ZM651 818Q619 818 584 794T517 727T456 627T408 505L377 255Q406 232 441 222T509 212Q563 212 608 248T687 342T738 476T757 629Q757 728 728 773T651 818Z" />
<glyph unicode="&#xff;" glyph-name="ydieresis" horiz-adv-x="1032" d="M421 -270Q405 -301 382 -315T325 -329H93L330 93L73 1037H335Q368 1037 384 1021T407 983L497 536Q503 507 508 479T516 421Q528 450 542 479T569 538L761 983Q773 1006 796 1021T843 1037H1093L421
-270ZM579 1319Q579 1287 566 1259T531 1211T479 1178T415 1166Q383 1166 355 1178T305 1210T270 1259T257 1319Q257 1352 270 1381T304 1431T354 1465T415 1478Q449 1478 478 1466T530 1432T566 1381T579 1319ZM965 1319Q965 1287 953 1259T918 1211T867 1178T803
1166Q770 1166 741 1178T690 1210T656 1259T643 1319Q643 1352 655 1381T690 1431T741 1465T803 1478Q837 1478 866 1466T918 1432T952 1381T965 1319Z" />
<glyph unicode="&#x2013;" glyph-name="endash" horiz-adv-x="1072" d="M186 708H942L916 503H160L186 708Z" />
<glyph unicode="&#x2014;" glyph-name="emdash" horiz-adv-x="1592" d="M186 708H1462L1436 503H160L186 708Z" />
<glyph unicode="&#x2018;" glyph-name="quoteleft" horiz-adv-x="438" d="M206 955Q182 1004 171 1053T159 1151Q159 1269 224 1379T418 1582L503 1528Q512 1523 517 1514T522 1494Q522 1480 515 1470T493 1443Q484 1432 470 1413T442 1366T420 1305T410 1232Q410
1201 417 1168T442 1097Q446 1089 446 1078Q446 1060 432 1045T394 1022L206 955Z" />
<glyph unicode="&#x2019;" glyph-name="quoteright" horiz-adv-x="438" d="M436 1543Q460 1494 471 1445T483 1347Q483 1229 418 1119T224 916L139 970Q130 975 125 984T120 1004Q120 1018 127 1028T148 1055Q158 1065 172 1085T199 1132T222 1193T232 1266Q232
1297 225 1330T200 1401Q196 1409 196 1420Q196 1438 210 1453T248 1476L436 1543Z" />
<glyph unicode="&#x201a;" glyph-name="quotesinglbase" horiz-adv-x="488" d="M298 324Q322 275 333 226T345 128Q345 10 280 -100T86 -303L1 -249Q-8 -244 -13 -235T-18 -215Q-18 -201 -11 -191T10 -164Q20 -154 34 -134T61 -87T84 -26T94 47Q94 78 87 111T62
182Q58 190 58 201Q58 219 72 234T110 257L298 324Z" />
<glyph unicode="&#x201c;" glyph-name="quotedblleft" horiz-adv-x="774" d="M206 955Q182 1004 171 1053T159 1151Q159 1269 224 1379T418 1582L503 1528Q512 1523 517 1514T522 1494Q522 1480 515 1470T493 1443Q484 1432 470 1413T442 1366T420 1305T410 1232Q410
1201 417 1168T442 1097Q446 1089 446 1078Q446 1060 432 1045T394 1022L206 955ZM542 955Q518 1004 507 1053T495 1151Q495 1269 560 1379T754 1582L839 1528Q848 1523 853 1514T858 1494Q858 1480 851 1470T829 1443Q820 1432 806 1413T778 1366T756 1305T746
1232Q746 1201 753 1168T778 1097Q782 1089 782 1078Q782 1060 768 1045T730 1022L542 955Z" />
<glyph unicode="&#x201d;" glyph-name="quotedblright" horiz-adv-x="774" d="M436 1543Q460 1494 471 1445T483 1347Q483 1229 418 1119T224 916L139 970Q130 975 125 984T120 1004Q120 1018 127 1028T148 1055Q158 1065 172 1085T199 1132T222 1193T232 1266Q232
1297 225 1330T200 1401Q196 1409 196 1420Q196 1438 210 1453T248 1476L436 1543ZM770 1543Q794 1494 805 1445T817 1347Q817 1229 752 1119T558 916L473 970Q464 975 459 984T454 1004Q454 1018 461 1028T482 1055Q492 1065 506 1085T533 1132T556 1193T566 1266Q566
1297 559 1330T534 1401Q530 1409 530 1420Q530 1438 544 1453T582 1476L770 1543Z" />
<glyph unicode="&#x201e;" glyph-name="quotedblbase" horiz-adv-x="774" d="M298 324Q322 275 333 226T345 128Q345 10 280 -100T86 -303L1 -249Q-8 -244 -13 -235T-18 -215Q-18 -201 -11 -191T10 -164Q20 -154 34 -134T61 -87T84 -26T94 47Q94 78 87 111T62
182Q58 190 58 201Q58 219 72 234T110 257L298 324ZM634 324Q658 275 669 226T681 128Q681 10 616 -100T422 -303L337 -249Q328 -244 323 -235T318 -215Q318 -201 325 -191T346 -164Q356 -154 370 -134T397 -87T420 -26T430 47Q430 78 423 111T398 182Q394 190
394 201Q394 219 408 234T446 257L634 324Z" />
<glyph unicode="&#x2022;" glyph-name="bullet" horiz-adv-x="1160" d="M100 592Q100 692 139 780T245 934T402 1038T594 1076Q697 1076 787 1038T944 934T1051 780T1090 592Q1090 493 1051 405T945 252T787 149T594 111Q492 111 402 149T245 252T139 405T100 592Z" />
<glyph unicode="&#x2039;" glyph-name="guilsinglleft" horiz-adv-x="626" d="M111 525L117 562L409 962L501 918Q539 900 539 866Q539 852 533 838T517 808L385 589Q376 574 366 563T344 543Q352 534 360 523T373 498L453 279Q457 268 459 258T462 238Q462 191
409 167L305 123L111 525Z" />
<glyph unicode="&#x203a;" glyph-name="guilsinglright" horiz-adv-x="626" d="M532 562L528 525L236 123L144 167Q105 186 105 221Q105 235 110 249T126 279L260 498Q268 512 278 523T300 542Q282 560 272 589L190 808Q182 829 182 846Q182 869 195 888T236 918L340
962L532 562Z" />
</font>
</defs>
</svg>
